Бесконечная история / The NeverEnding Story (1984) HDRip | P

Статистика раздачи
Размер: 1.46 ГБ | Добавлен: 20 ноя 2013, 12:33 | Скачали: 85
Сидеров: 84  [0 байт/сек]    Личеров: 3  [0 байт/сек]

Сообщение Гость » 20 ноя 2013, 12:33

Бесконечная история / The NeverEnding Story

Год выпуска: 1984
Страна: США, Германия (ФРГ)
Жанр: фэнтези, сказка, приключения
Продолжительность: 01:33:56
Перевод: Профессиональный (многоголосый, закадровый)
Субтитры: нет

Режиссер: Вольфганг Петерсен /Wolfgang Petersen

В ролях: Бэррет Оливер, Джералд МакРэйни, Драм Гаррет, Дэррил Кукси, Николас Гилберт, Томас Хилл, Дип Рой, Tilo Prückner, Моусес Ганн, Ной Хэтэуэй

Описание: Убегая от школьных хулиганов, 10-летний Бастиан спрятался в старой книжной лавке, где нашел таинственную книгу, изукрашенную орнаментом. Открыв ее, Бастиан попал в призрачный фантастический мир бегающих улиток, летающих собак, бескрылых Драконов Удачи, проказливых эльфов и ходячей каменоломни по имени Камнекус.

Но волшебной стране Фантазии и ее правительнице, Девочке-Императрице, угрожает страшная напасть под названием Ничто, порожденная «несбывшимися мечтами». Спасти Фантазию могут лишь юный воин Атрейю и сила воображения необыкновенного мечтателя Бастиана...


Качество: HDRip [BDRip 720p]
Формат: AVI
Видео кодек: XviD
Аудио кодек: AC3
Видео: 720x304 (2.37:1), 23.976 fps, XviD build 73 ~1834 kbps avg, 0.35 bit/pixel
Аудио: 48 kHz, AC3 Dolby Digital, 3/2 (L,C,R,l,r) + LFE ch, ~384 kbps

Раздача от:

D:Мои рипыThe.NeverEnding.Story.1984.HDRip.dexter_lex.avi
General
Complete name : D:Мои рипыThe.NeverEnding.Story.1984.HDRip.dexter_lex.avi
Format : AVI
Format/Info : Audio Video Interleave
File size : 1.46 GiB
Duration : 1h 33mn
Overall bit rate : 2 228 Kbps
Writing application : VirtualDubMod 1.5.10.3 | http://www.virtualdub-fr.org || (build 2550/release)
Writing library : VirtualDubMod build 2550/release
Video #0
ID : 0
Format : MPEG-4 Visual
Format profile : Advanced Simple@L5
Format settings, BVOP : 1
Format settings, QPel : No
Format settings, GMC : No warppoints
Format settings, Matrix : Custom
Codec ID : XVID
Codec ID/Hint : XviD
Duration : 1h 33mn
Bit rate : 1 835 Kbps
Width : 720 pixels
Height : 304 pixels
Display aspect ratio : 2.35:1
Frame rate : 23.976 fps
Color space : YUV
Chroma subsampling : 4:2:0
Bit depth : 8 bits
Scan type : Progressive
Compression mode : Lossy
Bits/(Pixel*Frame) : 0.350
Stream size : 1.20 GiB (82%)
Writing library : XviD 73
Audio #1
ID : 1
Format : AC-3
Format/Info : Audio Coding 3
Mode extension : CM (complete main)
Codec ID : 2000
Duration : 1h 33mn
Bit rate mode : Constant
Bit rate : 384 Kbps
Channel(s) : 6 channels
Channel positions : Front: L C R, Side: L R, LFE
Sampling rate : 48.0 KHz
Bit depth : 16 bits
Compression mode : Lossy
Stream size : 258 MiB (17%)
Alignment : Split accross interleaves
Interleave, duration : 42 ms (1.00 video frame)
Interleave, preload duration : 500 ms
Правила, инструкции, FAQ!!!
Торрент  Добавлен [20 ноя 2013, 12:33] Скачать торрент Магнет ссылка
Скачать торрент
[ Размер 15.12 КБ / Просмотров 11 ]

Статус
Проверен 
 
Размер  1.46 ГБ
Приватный: Нет (DHT включён)
.torrent скачан  85
Как залить торрент? | Как скачать Torrent? | Как смотреть и слушать онлайн?  
Гость
 


  • Похожие торренты
    Ответы
    Просмотры
    Последнее сообщение

Вернуться в Детское, Семейное кино

Кто сейчас на конференции

Сейчас этот форум просматривают: нет зарегистрированных пользователей и гости: 2