Девочка со спичками / Das Madchen mit den Schwefelholzern (2013) SATRip

Статистика раздачи
Размер: 1.22 ГБ | Добавлен: 08 янв 2015, 18:57 | Скачали: 2
Сидеров: 43  [0 байт/сек]    Личеров: 2  [0 байт/сек]

Сообщение Гость » 08 янв 2015, 18:57

Год выпуска: 2013
Производство: Германия
Жанр: Фэнтези, семейный, экранизация

Режиссер: Уве Янсон
Актеры: Леа Мюллер, Максимилиан Эренрайх, Нина Кунцендорф, Йорг Хартманн, Оливер Кориттке, Фердинанд Леманн, Тео Требс, Керстин Крамер, Бен Циммерманн

Описание фильма:
По мотивам сказки Ганса Христиана Андерсена. Юная Инга живет в сиротском приюте вместе со своим маленьким другом Эмилем. Приютом управляет жестокая госпожа Ландсфрид, которая заставляет детей работать, чтобы обеспечить ей безбедную жизнь. В канун Рождества Инга вместе с другими детьми выходит на городскую площадь, чтобы продавать спички, но радостные горожане в предчувствии праздника проходят мимо замерзающих детей. Те немногие деньги, что Инге удалось заработать, она отдала Эмилю, чтобы мальчика не наказали. Оставшись на ночной площади, девочка со спичками продолжала ждать, пока кто-нибудь не сжалиться над ней и не купит ее товар. Отчаявшись, девочка зашла в дом, где когда-то жила со своими родителями, и чтобы хоть как-то согреться зажгла спичку...



Продолжительность: 01:36:55
Качество видео: SATRip

Перевод: Профессиональный двухголосый (Игмар)

Видео: XviD, ~2473 Кбит/с, 720x400
Аудио 1: AC3, 2 ch, 256 Кбит/с - русский
Аудио 2:AC3, 2 ch, 256 Кбит/с - немецкий
Код:
Код: Выделить всё
Общее
Полное имя                               : C:\NNM\Девочка со спичками\Devochka so spichkami 2013 SATRip.avi
Формат                                   : AVI
Формат/Информация                        : Audio Video Interleave
Профиль формата                          : OpenDML
Настройки формата                        : rec
Размер файла                             : 1,22 Гбайт
Продолжительность                        : 58 м.
Общий поток                              : 2993 Кбит/сек
Программа кодирования                    : AVI-Mux GUI 1.17.8.3, Feb 16 201019:42:50

Видео
Идентификатор                            : 0
Формат                                   : MPEG-4 Visual
Профиль формата                          : Advanced Simple@L5
Параметр BVOP формата                    : Нет
Параметр QPel формата                    : Нет
Параметр GMC формата                     : Без точки перехода
Параметр матрицы формата                 : Default (MPEG)
Идентификатор кодека                     : XVID
Идентификатор кодека/Подсказка           : XviD
Продолжительность                        : 58 м.
Битрейт                                  : 2473 Кбит/сек
Ширина                                   : 720 пикселей
Высота                                   : 400 пикселей
Соотношение сторон                       : 16:9
Частота кадров                           : 25,000 кадров/сек
Цветовое пространство                    : YUV
Субдискретизация насыщенности            : 4:2:0
Битовая глубина                          : 8 бит
Тип развёртки                            : Прогрессивная
Метод сжатия                             : С потерями
Бит/(Пиксели*Кадры)                      : 0.343
Размер потока                            : 1,01 Гбайт (83%)
Библиотека кодирования                   : XviD 62

Аудио #1
Идентификатор                            : 1
Формат                                   : AC-3
Формат/Информация                        : Audio Coding 3
Расширение режима                        : CM (complete main)
Идентификатор кодека                     : 2000
Продолжительность                        : 58 м.
Вид битрейта                             : Постоянный
Битрейт                                  : 256 Кбит/сек
Каналы                                   : 2 канала
Расположение каналов                     : Front: L R
Частота                                  : 48,0 КГц
Битовая глубина                          : 16 бит
Метод сжатия                             : С потерями
Размер потока                            : 107 Мбайт (9%)
Выравнивание                             : Соединение по промежуткам
Продолжительность промежутка             : 64  мс. (1,60 видеокадра)
Время предзагрузки промежутка            : 192  мс.
Заголовок                                : Rus_106

Аудио #2
Идентификатор                            : 2
Формат                                   : AC-3
Формат/Информация                        : Audio Coding 3
Расширение режима                        : CM (complete main)
Идентификатор кодека                     : 2000
Продолжительность                        : 58 м.
Вид битрейта                             : Постоянный
Битрейт                                  : 256 Кбит/сек
Каналы                                   : 2 канала
Расположение каналов                     : Front: L R
Частота                                  : 48,0 КГц
Битовая глубина                          : 16 бит
Метод сжатия                             : С потерями
Размер потока                            : 107 Мбайт (9%)
Выравнивание                             : Соединение по промежуткам
Продолжительность промежутка             : 64  мс. (1,60 видеокадра)
Время предзагрузки промежутка            : 192  мс.
Заголовок                                : Ger_106
Скриншоты:
[center]
Правила, инструкции, FAQ!!!
Торрент  Добавлен [08 янв 2015, 18:57] Скачать торрент Магнет ссылка
Скачать торрент
[ Размер 12.95 КБ / Просмотров 22 ]

Статус
Проверен 
 
Размер  1.22 ГБ
Приватный: Нет (DHT включён)
.torrent скачан  2
Как залить торрент? | Как скачать Torrent? | Как смотреть и слушать онлайн?  
Гость
 


  • Похожие торренты
    Ответы
    Просмотры
    Последнее сообщение

Вернуться в Детское, Семейное кино

Кто сейчас на конференции

Сейчас этот форум просматривают: нет зарегистрированных пользователей и гости: 1