Две жизни / Passion of Mind (2000) DVDRip | P

Статистика раздачи
Размер: 1.75 ГБ | Добавлен: 28 дек 2013, 19:21 | Скачали: 0
Сидеров: 1  [0 байт/сек]    Личеров: 0  [0 байт/сек]

Сообщение Гость » 28 дек 2013, 19:21

Название: Две жизни
Оригинальное название: Passion of Mind
Год выхода: 2000
Жанр: Триллер, драма, мелодрама, детектив
Режиссер: Ален Берлинер

В ролях: Деми Мур, Элуиз Эонне, Адриан Даганно-Бруар, Шайя Куено, Джулианна Николсон, Уильям Фихтнер, Шинейд Кьюсак, Джосс Экленд, Питер Ригерт, Стеллан Скарсгард, Джерри Бэммен

О фильме:
Милая Мари — недавно овдовевшая мать двух прелестных дочерей — ведет тихую спокойную жизнь в живописном французском городке. Но каждую ночь она попадает в другую реальность, превращаясь в современную преуспевающую женщину. Очаровательная Марти возглавляет литературное издательство в Нью-Йорке. Сжигая сердца поклонников, красотка наслаждается стремительным темпом городской жизни. Блуждая во сне и наяву, Марти-Мари теряет связь с реальным миром, не зная, что существует на самом деле, а что — лишь плод ее воображения.



Страна: США
Студия: Lakeshore Entertainment, Ron Bass Productions
Продолжительность: 01:40:35
Перевод: Профессиональный многоголосый


Кодек: XviD
Качество: DVDRip
Видео: 1650 Кбит/с, 720x304, 25.000 кадр/с
Звук:
Аудио #1: Русский (АС3, 6 ch, 448 Кбит/с)
Аудио #2: Английский (AC3, 6 ch, 384 Кбит/с)

Семпл


Золотая малина, 2001 год
Номинации (1):

Худшая женская роль (Деми Мур)

Общее
Полное имя : Dve.zhizni.2000.DVDRip.MediaClub.avi
Формат : AVI
Формат/Информация : Audio Video Interleave
Размер файла : 1,75 Гбайт
Продолжительность : 1 ч. 40 м.
Общий поток : 2496 Кбит/сек
Название фильма : MediaClub
Программа кодирования : VirtualDubMod 1.5.10.2 (build 2540/release)
Библиотека кодирования : VirtualDubMod build 2540/release

Видео
Идентификатор : 0
Формат : MPEG-4 Visual
Профиль формата : Advanced Simple@L5
Параметр BVOP формата : 2
Параметр QPel формата : Нет
Параметр GMC формата : Без точки перехода
Параметр матрицы формата : Default (MPEG)
Идентификатор кодека : XVID
Идентификатор кодека/Подсказка : XviD
Продолжительность : 1 ч. 40 м.
Битрейт : 1650 Кбит/сек
Ширина : 720 пикселей
Высота : 304 пикселя
Соотношение сторон : 2,35:1
Частота кадров : 25,000 кадров/сек
Цветовое пространство : YUV
Субдискретизация насыщенности : 4:2:0
Битовая глубина : 8 бит
Тип развёртки : Прогрессивная
Метод сжатия : С потерями
Бит/(Пиксели*Кадры) : 0.302
Размер потока : 1,16 Гбайт (66%)
Библиотека кодирования : XviD 65

Аудио #1
Идентификатор : 1
Формат : AC-3
Формат/Информация : Audio Coding 3
Расширение режима : CM (complete main)
Параметр Endianness формата : Big
Идентификатор кодека : 2000
Продолжительность : 1 ч. 40 м.
Вид битрейта : Постоянный
Битрейт : 448 Кбит/сек
Каналы : 6 каналов
Расположение каналов : Front: L C R, Side: L R, LFE
Частота : 48,0 КГц
Битовая глубина : 16 бит
Метод сжатия : С потерями
Задержка видео : 900 мс.
Размер потока : 322 Мбайт (18%)
Выравнивание : Разделение по промежуткам
Продолжительность промежутка : 40 мс. (1,00 видеокадр)
Время предзагрузки промежутка : 500 мс.

Аудио #2
Идентификатор : 2
Формат : AC-3
Формат/Информация : Audio Coding 3
Расширение режима : CM (complete main)
Параметр Endianness формата : Big
Идентификатор кодека : 2000
Продолжительность : 1 ч. 40 м.
Вид битрейта : Постоянный
Битрейт : 384 Кбит/сек
Каналы : 6 каналов
Расположение каналов : Front: L C R, Side: L R, LFE
Частота : 48,0 КГц
Битовая глубина : 16 бит
Метод сжатия : С потерями
Размер потока : 276 Мбайт (15%)
Выравнивание : Разделение по промежуткам
Продолжительность промежутка : 40 мс. (1,00 видеокадр)
Время предзагрузки промежутка : 500 мс.


Релиз от:
Правила, инструкции, FAQ!!!
Торрент  Добавлен [28 дек 2013, 19:21] Скачать торрент Магнет ссылка
Скачать торрент
[ Размер 18.06 КБ / Просмотров 6 ]

Статус
Проверен 
 
Размер  1.75 ГБ
Приватный: Нет (DHT включён)
.torrent скачан  0
Как залить торрент? | Как скачать Torrent? | Как смотреть и слушать онлайн?  
Гость
 


  • Похожие торренты
    Ответы
    Просмотры
    Последнее сообщение

Вернуться в Триллеры

Кто сейчас на конференции

Сейчас этот форум просматривают: нет зарегистрированных пользователей и гости: 0