Галчонок / Kauwboy (2012) DVDRip

Статистика раздачи
Размер: 1.34 ГБ | Добавлен: 15 мар 2014, 23:44 | Скачали: 0
Сидеров: 0  [0 байт/сек]    Личеров: 0  [0 байт/сек]

Сообщение Гость » 15 мар 2014, 23:44

Галчонок / Kauwboy (2012) DVDRip



Год выпуска: 2012
Производство: Нидерланды
Жанр: Семейный

Описание фильма:
10-летний Йойо живет с отцом, ночным сторожем. Мать, по словам отца, кантри-певичка и гастролирует где-то в Штатах, но больше ничего папаша о ней не рассказывает. Поэтому мальчик беспокоится и постоянно думает о ней. Когда вдруг он находит выпавшего из гнезда галчонка, Йойо начинает заботиться о нем и на время забывает о всех других своих заботах и неприятностях. Жизнь, кажется, становится чуть лучше, но тревога о матери все равно не покидает мальчика…

Режиссер: Будевейн Кооле
Актеры: Рик Ленс, Люк Петерс, Рикки Коолe, Кахит Юлмез, Сюзан Раддер



Продолжительность: 01:21:03
Качество видео: DVDRip
Перевод: Двуголосый закадровый
Субтитры: Отсутствуют

Видеокодек: Xvid
Битрейт видео: ~1978 kb/s
Размер кадра: 704x400
Аудио 1: Русский, MP3, 2 ch, 192 kb/s
Аудио 2: Голландский, MP3, 2 ch, 192 kb/s
Видео
Идентификатор : 0
Формат : MPEG-4 Visual
Профиль формата : Simple@L5
Параметр BVOP формата : Нет
Параметр QPel формата : Нет
Параметр GMC формата : Без точки перехода
Параметр матрицы формата : Default (H.263)
Идентификатор кодека : XVID
Идентификатор кодека/Подсказка : XviD
Продолжительность : 1 ч. 21 м.
Битрейт : 1978 Кбит/сек
Ширина : 704 пикс.
Высота : 400 пикс.
Соотношение сторон : 16:9
Частота кадров : 24,000 кадр/сек
Цветовое пространство : YUV
Подвыборка цветности : 4:2:0
Битовая глубина : 8 бит
Тип развёртки : Прогрессивная
Метод сжатия : С потерями
Бит/(Пиксели*Кадры) : 0.293
Размер потока : 1,12 Гбайт (84%)
Библиотека кодирования : XviD 64

Аудио #1
Идентификатор : 1
Формат : MPEG Audio
Версия формата : Version 1
Профиль формата : Layer 3
Режим : Joint stereo
Идентификатор кодека : 55
Идентификатор кодека/Подсказка : MP3
Продолжительность : 1 ч. 21 м.
Вид битрейта : Постоянный
Битрейт : 192 Кбит/сек
Канал(ы) : 2 канала(ов)
Частота : 48,0 КГц
Метод сжатия : С потерями
Размер потока : 111 Мбайт (8%)
Выравнивание : Соединение по промежуткам
Продолжительность промежутка : 377 мс. (9,05 видеокадров)
Время предзагрузки промежутка : 216 ms

Аудио #2
Идентификатор : 2
Формат : MPEG Audio
Версия формата : Version 1
Профиль формата : Layer 3
Режим : Joint stereo
Идентификатор кодека : 55
Идентификатор кодека/Подсказка : MP3
Продолжительность : 1 ч. 21 м.
Вид битрейта : Постоянный
Битрейт : 192 Кбит/сек
Канал(ы) : 2 канала(ов)
Частота : 48,0 КГц
Метод сжатия : С потерями
Размер потока : 111 Мбайт (8%)
Выравнивание : Соединение по промежуткам
Продолжительность промежутка : 377 мс. (9,05 видеокадров)
Время предзагрузки промежутка : 216 ms
Скриншоты:



Правила, инструкции, FAQ!!!
Торрент  Добавлен [15 мар 2014, 23:44] Скачать торрент Магнет ссылка
Скачать торрент
[ Размер 14.14 КБ / Просмотров 5 ]

Статус
Проверен 
 
Размер  1.34 ГБ
Приватный: Нет (DHT включён)
.torrent скачан  0
Как залить торрент? | Как скачать Torrent? | Как смотреть и слушать онлайн?  
Гость
 


  • Похожие торренты
    Ответы
    Просмотры
    Последнее сообщение

Вернуться в Детское, Семейное кино

Кто сейчас на конференции

Сейчас этот форум просматривают: нет зарегистрированных пользователей и гости: 0