Хижина дяди Тома / Onkel Toms Hütte / Uncle Tom's Cabin (1965) DVDRip

Статистика раздачи
Размер: 1.39 ГБ | Добавлен: 09 авг 2014, 21:30 | Скачали: 4
Сидеров: 19  [0 байт/сек]    Личеров: 6  [0 байт/сек]

Сообщение Гость » 09 авг 2014, 21:30

Русское название: Хижина дяди Тома
Оригинальное название: Onkel Toms Hütte / Uncle Tom's Cabin
Год выпуска: 1965
Жанр: Драма
Страна: Франция, Италия, ФРГ, Югославия

Описание фильма:
Классическая экранизация всемирно известного одноименного романа Гарриет Бичер-Стоу, в котором с большим реализмом изображаются ужасы рабовладельческой системы в Америке.

Доп. информация: Фильм дублирован на русский язык Центральной студией киноактера Мосфильм. Режиссер дубляжа Евгений Алексеев, звукооператор Нинель Калениченко, автор русского синхронного текста З. Целиковская, редактор Л. Балашова.

Режиссер: Геза фон Радваньи / Géza von Radványi
Актеры: Джон Кицмиллер, Херберт Лом, Олив Мурфилд, О.В. Фишер, Катана Кайэтано, Михаэла Май, Милен Демонжо, Чарльз Фоусет, Вильма Дегишер, Томас Фритш

Роли дублировали: Владимир Дружников, Артем Карапетян, Марина Стриженова, Владимир Емельянов, Оля Кузнеченкова, Антонина Кончакова, Мария Виноградова, Сергей Курилов, Игорь Ясулович, Олег Мокшанцев.

Продолжительность: 02:21:45
Перевод: Дублированный (советский дубляж, Мосфильм)



Дата мировой премьеры: 14 апреля 1965

Видеокодек: Xvid
Битрейт видео: ~1 198 Kbps
Размер кадра: 720х304
Качество видео: DVDRip
Аудиокодек: AC3 2 ch
Аудио: 48 kHz, AC3 Dolby Digital, 2/0 (L,R) ch, ~192 kbps (советский дубляж)

Сэмпл: Ссылка

Рип взят из сети и оставлен без изменений
За рип спасибо porhaleks
Format : AVI
Format/Info : Audio Video Interleave
File size : 1.39 GiB
Duration : 2h 21mn
Overall bit rate : 1 400 Kbps
Writing application : VirtualDubMod 1.5.10.2 (build 2540/release)
Writing library : VirtualDubMod build 2540/release

Video
ID : 0
Format : MPEG-4 Visual
Format profile : Advanced Simple@L5
Format settings, BVOP : 3
Format settings, QPel : No
Format settings, GMC : No warppoints
Format settings, Matrix : Default (H.263)
Codec ID : XVID
Codec ID/Hint : XviD
Duration : 2h 21mn
Bit rate : 1 198 Kbps
Width : 720 pixels
Height : 304 pixels
Display aspect ratio : 2.35:1
Frame rate : 25.000 fps
Color space : YUV
Chroma subsampling : 4:2:0
Bit depth : 8 bits
Scan type : Progressive
Compression mode : Lossy
Bits/(Pixel*Frame) : 0.219
Stream size : 1.19 GiB (86%)
Writing library : XviD 1.2.1 (UTC 2008-12-04)

Audio
ID : 1
Format : AC-3
Format/Info : Audio Coding 3
Mode extension : CM (complete main)
Format settings, Endianness : Big
Codec ID : 2000
Duration : 2h 21mn
Bit rate mode : Constant
Bit rate : 192 Kbps
Channel(s) : 2 channels
Channel positions : Front: L R
Sampling rate : 48.0 KHz
Bit depth : 16 bits
Compression mode : Lossy
Stream size : 195 MiB (14%)
Alignment : Split accross interleaves
Interleave, duration : 40 ms (1.00 video frame)
Interleave, preload duration : 500 ms
Скриншоты:



Правила, инструкции, FAQ!!!
Торрент  Добавлен [09 авг 2014, 21:30] Скачать торрент Магнет ссылка
Скачать торрент
[ Размер 14.58 КБ / Просмотров 36 ]

Статус
Проверен 
 
Размер  1.39 ГБ
Приватный: Нет (DHT включён)
.torrent скачан  4
Как залить торрент? | Как скачать Torrent? | Как смотреть и слушать онлайн?  
Гость
 


  • Похожие торренты
    Ответы
    Просмотры
    Последнее сообщение

Вернуться в Детское, Семейное кино

Кто сейчас на конференции

Сейчас этот форум просматривают: нет зарегистрированных пользователей и гости: 1