Исчезновение Юки Нагато / Nagato Yuki-chan no Shoushitsu [01-16 из 16] (2015) HDTVRip 720p | AniDub

Статистика раздачи
Размер: 5.02 ГБ | Добавлен: 19 дек 2015, 10:08 | Скачали: 965
Сидеров: 70  [0 байт/сек]    Личеров: 8  [0 байт/сек]

Сообщение Гость » 19 дек 2015, 10:08

Название: Исчезновение Юки Нагато
Оригинальное название: The Disappearance of Nagato Yuki-chan / Nagato Yuki-chan no Shoushitsu
Год выхода: 2015
Жанр: комедия, школа, романтика
Режиссер: Вада Дзюнъити
Художник: Тадзири Кэнъити, Исида Кёко
В ролях: Тихара Минори, Сугита Томокадзу, Куватани Нацуко, Гото Юко, Мацуока Юки, Хирано Ая, Оно Дайсукэ, Сирайси Минору, Мацумото Мэгуми

О фильме:
Что если из мироздания исчезнет юная богиня, а на ее месте возникнет шумная и необычная школьница по имени Харухи Судзумия? Как вы уже догадались, миру тогда не понадобятся эсперы, пришельцы и путешественники по времени, все смогут жить спокойно и в разной мере счастливо. В этом Отражении Юки Нагато – не бесстрастный эффектор Единой Мыслящей Сущности, а симпатичная и застенчивая «литературная девушка», если и готовая с кем-то схватиться, то в состязании с некоей Микурочкой за сердце их общего знакомого Кёна!
Да, верные поклонники будут рады увидеть любимых героев в любом мире, любом виде и любом разрезе, тем более, что кроме «великолепной пятерки» здесь много старых знакомых, и среди них резкая девушка Рёко Асакура, все так же виртуозно владеющая ножом (попробуйте не уступить в скоростной нарезке овощей самой Цуруе-сан!) Ну а так ли просты обитатели данного Отражения – вы должны разобраться сами, ибо там, где играет «команда SOS», ничего нельзя сказать наперед. Надеяться же мы можем лишь на одно – что «бесконечной восьмерки» больше никогда не будет!
© Hollow, World Art

Страна: Япония
Студия: Satelight
Продолжительность: 00:24:00
Язык: Русский
Перевод: Любительский (многоголосый, закадровый) AniDub


Качество: HDTVRip
Формат: MP4
Кодек: MPEG-4 AVC
Видео: 1280x720, 23.976 fps, 1200 kbps
Звук: Аудио кодек: AAC
Аудио RUS: 48 kHz, AAC, 2 ch, 192 kbps

Релиз от:
Озвучивание: Ancord, Fuurou, Trina_D, Oriko
Перевод: Timecraft
Тайминг и работа со звуком: Al'pair


01. Драгоценное место
02. Радуйся, мир!
03. Харухи Судзумия!
04. Валентинов день
05. Её меланхолия
06. За обедом
07. Желание
08. Сценарий Харухи Судзумии
09. Дай мне руку...
10. Когда-то под дождем
11. Исчезновение Юки Нагато. Часть I
12. Исчезновение Юки Нагато. Часть II
13. Исчезновение Юки Нагато. Часть III
14. Её смятение
15. Его сомнения
16. Фейерверк
General
Format : MPEG-4
Format profile : Base Media
Codec ID : isom
File size : 244 MiB
Duration : 24mn 35s
Overall bit rate mode : Variable
Overall bit rate : 1 390 Kbps
Encoded date : UTC 2015-04-05 19:20:46
Tagged date : UTC 2015-04-05 19:20:46
Writing application : Yamb 2.1.0.0

Video
ID : 1
Format : AVC
Format/Info : Advanced Video Codec
Format profile : High@L3.1
Format settings, CABAC : Yes
Format settings, ReFrames : 4 frames
Codec ID : avc1
Codec ID/Info : Advanced Video Coding
Duration : 24mn 29s
Bit rate : 1 198 Kbps
Maximum bit rate : 6 041 Kbps
Width : 1 280 pixels
Height : 720 pixels
Display aspect ratio : 16:9
Frame rate mode : Constant
Frame rate : 23.976 fps
Color space : YUV
Chroma subsampling : 4:2:0
Bit depth : 8 bits
Scan type : Progressive
Bits/(Pixel*Frame) : 0.054
Stream size : 210 MiB (86%)
Writing library : x264 core 133 r2334 a3ac64b
Encoding settings : cabac=1 / ref=3 / deblock=1:0:0 / analyse=0x3:0x113 / me=hex / subme=7 / psy=1 / psy_rd=1.00:0.00 / mixed_ref=1 / me_range=16 / chroma_me=1 / trellis=1 / 8x8dct=1 / cqm=0 / deadzone=21,11 / fast_pskip=1 / chroma_qp_offset=-2 / threads=12 / lookahead_threads=2 / sliced_threads=0 / nr=0 / decimate=1 / interlaced=0 / bluray_compat=0 / constrained_intra=0 / bframes=3 / b_pyramid=2 / b_adapt=1 / b_bias=0 / direct=1 / weightb=1 / open_gop=0 / weightp=2 / keyint=250 / keyint_min=23 / scenecut=40 / intra_refresh=0 / rc_lookahead=40 / rc=crf / mbtree=1 / crf=19.5 / qcomp=0.60 / qpmin=0 / qpmax=69 / qpstep=4 / ip_ratio=1.40 / aq=1:1.00
Encoded date : UTC 2015-04-04 21:11:35
Tagged date : UTC 2015-04-05 19:20:47

Audio
ID : 2
Format : AAC
Format/Info : Advanced Audio Codec
Format profile : LC
Codec ID : 40
Duration : 24mn 35s
Bit rate mode : Variable
Bit rate : 192 Kbps
Maximum bit rate : 196 Kbps
Channel(s) : 2 channels
Channel positions : Front: L R
Sampling rate : 48.0 KHz
Compression mode : Lossy
Stream size : 33.8 MiB (14%)
Language : Russian
Encoded date : UTC 2015-04-05 19:20:46
Tagged date : UTC 2015-04-05 19:20:47
Правила, инструкции, FAQ!!!
Торрент  Добавлен [19 дек 2015, 10:08] Скачать торрент Магнет ссылка
Скачать торрент
[ Размер 14.8 КБ / Просмотров 27 ]

Статус
Проверен 
 
Размер  5.02 ГБ
Приватный: Нет (DHT включён)
.torrent скачан  965
Как залить торрент? | Как скачать Torrent? | Как смотреть и слушать онлайн?  
Гость
 


  • Похожие торренты
    Ответы
    Просмотры
    Последнее сообщение

Вернуться в Анимэ

Кто сейчас на конференции

Сейчас этот форум просматривают: нет зарегистрированных пользователей и гости: 0