Изощренный убийца / Certain Prey (Крис Джеролмо / Chris Gerolmo) [2011, США, триллер, драма, криминал, HDTVRip] Dub

Статистика раздачи
Размер: 1.37 ГБ | Добавлен: 02 мар 2013, 01:07 | Скачали: 0
Сидеров: 0  [0 байт/сек]    Личеров: 0  [0 байт/сек]

Сообщение Гость » 02 мар 2013, 01:07

Изощренный убийца



Страна: США
Жанр: триллер, драма, криминал
Год выпуска: 2011
Продолжительность: 01:28:14

Перевод: Профессиональный (полное дублирование)
Субтитры: нет
Режиссер: Крис Джеролмо / Chris Gerolmo

В фильме снимались: Лола Глаудини, Марк Хэрмон, Татьяна Маслани, Кейт Гринхаус, Арт Хиндл, Эйдан Дивайн, Афина Карканис, Ананд Раджарам, Род Уилсон, Марк Тейлор, Брэндон МакГибон, Эрик Вулф


Вкратце: Заместитель начальника полиции Лукас Давенпорт вступает в интеллектуальную схватку с искусным убийцей, который всегда на шаг впереди представителей власти и настолько предусмотрителен, что никто не может определить его слабые стороны и предугадать последующие действия.




Качество: HDTVRip
Контейнер: AVI
Видео: XviD, 720x400 (16:9), 2019 kbps, 23,976 fps, 0,292 bpp
Аудио: AC3 / 2.0 / 48 kHz / 192 kbps / 16 bit


Media Info
General
Complete name : F:\Izoshrennyj.ybijca.2011.D_HDTVRip.avi
Format : AVI
Format/Info : Audio Video Interleave
File size : 1.37 GiB
Duration : 1h 28mn
Overall bit rate : 2 221 Kbps
Writing application : VirtualDubMod 1.5.10.3 | virtualdub-fr.org || (build 2550/release)
Writing library : VirtualDubMod build 2550/release[br][/br]Video
ID : 0
Format : MPEG-4 Visual
Format profile : Advanced Simple@L5
Format settings, BVOP : 2
Format settings, QPel : No
Format settings, GMC : No warppoints
Format settings, Matrix : Default (MPEG)
Codec ID : XVID
Codec ID/Hint : XviD
Duration : 1h 28mn
Bit rate : 2 020 Kbps
Width : 720 pixels
Height : 400 pixels
Display aspect ratio : 16:9
Frame rate : 23.976 fps
Color space : YUV
Chroma subsampling : 4:2:0
Bit depth : 8 bits
Scan type : Progressive
Compression mode : Lossy
Bits/(Pixel*Frame) : 0.292
Stream size : 1.24 GiB (91%)
Writing library : XviD 1.2.1 (UTC 2008-12-04)[br][/br]Audio
ID : 1
Format : AC-3
Format/Info : Audio Coding 3
Mode extension : CM (complete main)
Codec ID : 2000
Duration : 1h 28mn
Bit rate mode : Constant
Bit rate : 192 Kbps
Channel(s) : 2 channels
Channel positions : Front: L R
Sampling rate : 48.0 KHz
Bit depth : 16 bits
Compression mode : Lossy
Stream size : 121 MiB (9%)
Alignment : Split accross interleaves
Interleave, duration : 42 ms (1.00 video frame)
Interleave, preload duration : 500 ms



Правила, инструкции, FAQ!!!
Торрент  Добавлен [02 мар 2013, 01:07] Скачать торрент Магнет ссылка
Скачать торрент
[ Размер 14.25 КБ / Просмотров 7 ]

Статус
Проверен 
 
Размер  1.37 ГБ
Приватный: Нет (DHT включён)
.torrent скачан  0
Как залить торрент? | Как скачать Torrent? | Как смотреть и слушать онлайн?  
Гость
 


  • Похожие торренты
    Ответы
    Просмотры
    Последнее сообщение

Вернуться в Триллеры

Кто сейчас на конференции

Сейчас этот форум просматривают: нет зарегистрированных пользователей и гости: 0