Клара и тайна медведей / Clara und das Geheimnis der Baren (2013) BDRip

Статистика раздачи
Размер: 2.07 ГБ | Добавлен: 09 авг 2014, 21:27 | Скачали: 1
Сидеров: 6  [0 байт/сек]    Личеров: 0  [0 байт/сек]

Сообщение Гость » 09 авг 2014, 21:27

Год выпуска: 2013
Производство: Швейцария | HesseGreutert Film AG, NEOS Film
Жанр: Семейный

Описание фильма:
13-летняя Клара живет вместе с матерью и отчимом на горной ферме в швейцарских Альпах. Любящая природу девушка способна почувствовать и увидеть красоту окружающего мира, которую другие не замечают. Однажды на прогулке она встречает медвежонка, а вскоре после этого знакомится с Сусанной, которая жила на этой ферме... 200 лет назад. Теперь, когда привычный мир Клары катится под откос, ей предстоит разгадать многовековую загадку и восстановить баланс между людьми и природой...

Режиссер: Тобиас Инайхен
Актеры: Рикарда Циммерер, Елена Улиг, Рёланд Визнеккер, Рифка Фер, Моника Губзер, Петер Йеклин, Херберт Лайзер, Маркус Мерц

Продолжительность: 01:33:52
Качество видео: BDRip
Перевод: Любительский (одноголосый, закадровый)
Автор перевода: viktor_2838
Язык субтитров: Отсутствуют



Дата мировой премьеры: 28 февраля 2013 Швейцария

Видео: 720x304 (2.35:1), 23.970 fps, XviD ~2051 kbps avg, 0.391 bit/pixel
Аудио №1: 48 kHz, AC3 Dolby Digital, 2/0 (L,R) ch, ~192 kbps | Любительский (одноголосый, закадровый)
Аудио №2: 48 kHz, AC-3, 6 ch, Front: L C R, Side: L R, LFE ~448 kbps avg | Немецкий (включён по умолчанию)
Аудио №3: 48 kHz, AC-3, 6 ch, Front: L C R, Side: L R, LFE ~448 kbps avg | Итальянский
Сэмпл: Скачать
Код:
Код: Выделить всё
General
Complete name                  : D:\фильмы\Clara.i.tajna.medvedej.2013.BDRip.avi
Format                         : AVI
Format/Info                    : Audio Video Interleave
Format profile                 : OpenDML
File size                      : 2.07 GiB
Duration                       : 1h 33mn
Overall bit rate               : 3 161 Kbps
Writing application            : Lavf51.12.1

Video
ID                             : 0
Format                         : MPEG-4 Visual
Format profile                 : Simple@L1
Format settings, BVOP          : No
Format settings, QPel          : No
Format settings, GMC           : No warppoints
Format settings, Matrix        : Default (H.263)
Codec ID                       : FMP4
Duration                       : 1h 33mn
Bit rate                       : 2 051 Kbps
Width                          : 720 pixels
Height                         : 304 pixels
Display aspect ratio           : 2.35:1
Frame rate                     : 23.976 fps
Color space                    : YUV
Chroma subsampling             : 4:2:0
Bit depth                      : 8 bits
Scan type                      : Progressive
Compression mode               : Lossy
Bits/(Pixel*Frame)             : 0.391
Stream size                    : 1.34 GiB (65%)
Writing library                : Lavc51.40.4

Audio #1
ID                             : 1
Format                         : AC-3
Format/Info                    : Audio Coding 3
Mode extension                 : CM (complete main)
Format settings, Endianness    : Big
Codec ID                       : 2000
Duration                       : 1h 33mn
Bit rate mode                  : Constant
Bit rate                       : 192 Kbps
Channel(s)                     : 2 channels
Channel positions              : Front: L R
Sampling rate                  : 48.0 KHz
Bit depth                      : 16 bits
Compression mode               : Lossy
Stream size                    : 129 MiB (6%)
Alignment                      : Aligned on interleaves
Interleave, duration           : 32 ms (0.77 video frame)
Interleave, preload duration   : 32 ms

Audio #2
ID                             : 2
Format                         : AC-3
Format/Info                    : Audio Coding 3
Mode extension                 : CM (complete main)
Format settings, Endianness    : Big
Codec ID                       : 2000
Duration                       : 1h 33mn
Bit rate mode                  : Constant
Bit rate                       : 448 Kbps
Channel(s)                     : 6 channels
Channel positions              : Front: L C R, Side: L R, LFE
Sampling rate                  : 48.0 KHz
Bit depth                      : 16 bits
Compression mode               : Lossy
Stream size                    : 301 MiB (14%)
Alignment                      : Aligned on interleaves
Interleave, duration           : 32 ms (0.77 video frame)
Interleave, preload duration   : 32 ms

Audio #3
ID                             : 3
Format                         : AC-3
Format/Info                    : Audio Coding 3
Mode extension                 : CM (complete main)
Format settings, Endianness    : Big
Codec ID                       : 2000
Duration                       : 1h 33mn
Bit rate mode                  : Constant
Bit rate                       : 448 Kbps
Channel(s)                     : 6 channels
Channel positions              : Front: L C R, Side: L R, LFE
Sampling rate                  : 48.0 KHz
Bit depth                      : 16 bits
Compression mode               : Lossy
Stream size                    : 301 MiB (14%)
Alignment                      : Aligned on interleaves
Interleave, duration           : 32 ms (0.77 video frame)
Interleave, preload duration   : 32 ms
[font=Georgia]Скриншоты:



Правила, инструкции, FAQ!!!
Торрент  Добавлен [09 авг 2014, 21:27] Скачать торрент Магнет ссылка
Скачать торрент
[ Размер 11.21 КБ / Просмотров 8 ]

Статус
Проверен 
 
Размер  2.07 ГБ
Приватный: Нет (DHT включён)
.torrent скачан  1
Как залить торрент? | Как скачать Torrent? | Как смотреть и слушать онлайн?  
Гость
 


  • Похожие торренты
    Ответы
    Просмотры
    Последнее сообщение

Вернуться в Детское, Семейное кино

Кто сейчас на конференции

Сейчас этот форум просматривают: нет зарегистрированных пользователей и гости: 1