Контроль / Control (2004) Web-DLRip

Статистика раздачи
Размер: 1.46 ГБ | Добавлен: 05 янв 2014, 16:01 | Скачали: 9
Сидеров: 24  [0 байт/сек]    Личеров: 5  [0 байт/сек]

Сообщение Гость » 05 янв 2014, 16:01

Год выпуска: 2004
Страна: Германия, США, Аруба
Жанр: триллер, криминал, драма
Продолжительность: 01:38:58
Перевод: Профессиональный (многоголосый закадровый)
Русские субтитры: нет

Режиссер: Тим Хантер / Tim Hunter

В ролях: Рэй Лиотта / Ray Liotta, Уиллем Дефо / Willem Dafoe, Мишель Родригес / Michelle Rodriguez, Стивен Ри / Stephen Rea, Полли Уокер / Polly Walker, Кэтлин Робертсон / Kathleen Robertson, Тим ДиКей / Tim DeKay

Описание: В последние секунды своей жизни Ли Рэй Оливер вспоминал детство... Смертельная инъекция заполняла тело психопата-убийцы ядовитой жидкостью... В конце концов, глаза Оливера закрылись, и врач констатировал наступление смерти...

Когда свидетели, которым полагалось присутствовать при исполнении смертного приговора, разошлись, тело Ли Рэя в черном целлофановом мешке увезли в другую комнату, где спустя некоторое время Оливер проснулся и узнал, что ему предлагается стать участником секретного медицинского эксперимента...

Качество: WEB-DLRip
Источник: WEB-DL 720p (Видео: AVC, 1280х720 (16:9))
Формат: AVI

Видео: 720x400 (16:9), 23.976 fps, XviD ~1656 kbps, 0.239 bit/pixel
Аудио: AC3, 5.1, 48.0 kHz, ~448 kbps, 3/2 (L,C,R,l,r) + LFE ch



Раздача от:

Код: Выделить всё
General
Complete name                            : Y:Control.2004.WEB-DLRip_[new-team]_by_DrStandBy.avi
Format                                   : AVI
Format/Info                              : Audio Video Interleave
File size                                : 1.46 GiB
Duration                                 : 1h 38mn
Overall bit rate                         : 2 108 Kbps
Writing application                      : VirtualDubMod 1.5.10.3 | www.virtualdub-fr.org || (build 2550/release)
Writing library                          : VirtualDubMod build 2550/release

Video
ID                                       : 0
Format                                   : MPEG-4 Visual
Format profile                           : Advanced Simple@L5
Format settings, BVOP                    : 1
Format settings, QPel                    : No
Format settings, GMC                     : No warppoints
Format settings, Matrix                  : Custom
Codec ID                                 : XVID
Codec ID/Hint                            : XviD
Duration                                 : 1h 38mn
Bit rate                                 : 1 651 Kbps
Width                                    : 720 pixels
Height                                   : 400 pixels
Display aspect ratio                     : 16:9
Frame rate                               : 23.976 fps
Color space                              : YUV
Chroma subsampling                       : 4:2:0
Bit depth                                : 8 bits
Scan type                                : Progressive
Compression mode                         : Lossy
Bits/(Pixel*Frame)                       : 0.239
Stream size                              : 1.14 GiB (78%)
Writing library                          : XviD 1.2.1 (UTC 2008-12-04)

Audio
ID                                       : 1
Format                                   : AC-3
Format/Info                              : Audio Coding 3
Mode extension                           : CM (complete main)
Format settings, Endianness              : Big
Codec ID                                 : 2000
Duration                                 : 1h 38mn
Bit rate mode                            : Constant
Bit rate                                 : 448 Kbps
Channel(s)                               : 6 channels
Channel positions                        : Front: L C R, Side: L R, LFE
Sampling rate                            : 48.0 KHz
Bit depth                                : 16 bits
Compression mode                         : Lossy
Stream size                              : 317 MiB (21%)
Alignment                                : Split accross interleaves
Interleave, duration                     : 42 ms (1.00 video frame)
Interleave, preload duration             : 500 ms
Правила, инструкции, FAQ!!!
Торрент  Добавлен [05 янв 2014, 16:01] Скачать торрент Магнет ссылка
Скачать торрент
[ Размер 15.19 КБ / Просмотров 21 ]

Статус
Проверен 
 
Размер  1.46 ГБ
Приватный: Нет (DHT включён)
.torrent скачан  9
Как залить торрент? | Как скачать Torrent? | Как смотреть и слушать онлайн?  
Гость
 


  • Похожие торренты
    Ответы
    Просмотры
    Последнее сообщение

Вернуться в Триллеры

Кто сейчас на конференции

Сейчас этот форум просматривают: нет зарегистрированных пользователей и гости: 0