Кошки против собак: Месть Китти Галор / Cats & Dogs: The Revenge of Kitty Galore (Брэд Пейтон / Brad Peyton) [2010, США, Австралия, боевик, комедия, семейный, HDRip] DUB (лицензия)

Статистика раздачи
Размер: 1.45 ГБ | Добавлен: 11 фев 2014, 09:15 | Скачали: 1
Сидеров: 11  [0 байт/сек]    Личеров: 3  [0 байт/сек]

Сообщение Гость » 11 фев 2014, 09:15

Кошки против собак: Месть Китти Галор / Cats & Dogs: The Revenge of Kitty Galore

Страна: США, Австралия
Студия: Warner Bros. Pictures, Village Roadshow Pictures
Жанр: боевик, комедия, семейный
Год выпуска: 2010
Продолжительность: 01:22:19

Перевод: Профессиональный (дублированный)
Субтитры: нет
Оригинальная аудиодорожка: нет

Режиссер: Брэд Пейтон / Brad Peyton

В ролях: Джеймс Марсден, Ник Нолти, Кристина Эпплгейт, Кэт Уильямс, Бетт Мидлер, Нил Патрик Харрис, Шон Хейс, Уоллес Шоун, Роджер Мур, Джо Пантольяно...

Описание: В старом как мир противостоянии кошек и собак одна съехавшая с катушек кошачья особа зашла слиш-ш-шком далеко. Китти Галор, в прошлом агент шпионской организации МЯУС, вышла из подчинения и замыслила дьявольский план, чтобы не только прижать к когтю своих собачьих недругов, но и нанести поражение своим бывшим кошачьим соратникам и прибрать в свои загребущие лапы власть над миром. Столкнувшись с беспрецедентной угрозой, кошки и собаки вынуждены впервые в истории объединить силы, заключив весьма неожиданный союз ради собственного спасения и спасения нас, людей, в новом фильме «Кошки против собак: Месть Китти Галор» — 3D комедии, которая сочетает игровые съемки, ультрасовременную аниматронику и компьютерную анимацию. Битва до последнего клочка шерсти начинается!



Бюджет: $85 000 000


Тип релиза: HDRip
Контейнер: AVI
Видео: 720x400 (16:9), 23.976 fps, XVID ~2135 kbps avg, 0.309 bit/pixel
Аудио : Русский, 48 kHz, AC3, 6 ch, 384.00 kbps Constant DUB
MediaInfo
General
Complete name : Koshki.protiv.sobak.Mest.Kitti.Galor.2010.D.HDRip.avi
Format : AVI
Format/Info : Audio Video Interleave
File size : 1.45 GiB
Duration : 1h 22mn
Overall bit rate : 2 529 Kbps
Writing application : VirtualDubMod 1.5.10.3 (build 2550/release)
Writing library : VirtualDubMod build 2550/release

Video
ID : 0
Format : MPEG-4 Visual
Format profile : Advanced Simple@L5
Format settings, BVOP : Yes
Format settings, QPel : No
Format settings, GMC : No warppoints
Format settings, Matrix : Custom
Codec ID : XVID
Codec ID/Hint : XviD
Duration : 1h 22mn
Bit rate : 2 135 Kbps
Width : 720 pixels
Height : 400 pixels
Display aspect ratio : 16:9
Frame rate : 23.976 fps
Color space : YUV
Chroma subsampling : 4:2:0
Bit depth : 8 bits
Scan type : Progressive
Bits/(Pixel*Frame) : 0.309
Stream size : 1.23 GiB (84%)
Writing library : XviD 1.2.1 (UTC 2008-12-04)

Audio
ID : 1
Format : AC-3
Format/Info : Audio Coding 3
Mode extension : CM (complete main)
Codec ID : 2000
Duration : 1h 22mn
Bit rate mode : Constant
Bit rate : 384 Kbps
Channel(s) : 6 channels
Channel positions : Front: L C R, Side: L R, LFE
Sampling rate : 48.0 KHz
Bit depth : 16 bits
Stream size : 226 MiB (15%)
Alignment : Split accross interleaves
Interleave, duration : 42 ms (1.00 video frame)
Interleave, preload duration : 500 ms
Скриншот с названием
Скриншоты
Правила, инструкции, FAQ!!!
Торрент  Добавлен [11 фев 2014, 09:15] Скачать торрент Магнет ссылка
Скачать торрент
[ Размер 29.73 КБ / Просмотров 13 ]

Статус
Проверен 
 
Размер  1.45 ГБ
Приватный: Нет (DHT включён)
.torrent скачан  1
Как залить торрент? | Как скачать Torrent? | Как смотреть и слушать онлайн?  
Гость
 


  • Похожие торренты
    Ответы
    Просмотры
    Последнее сообщение

Вернуться в Детское, Семейное кино

Кто сейчас на конференции

Сейчас этот форум просматривают: нет зарегистрированных пользователей и гости: 1