Леон / Leon (Люк Бессон / Luc Besson) [1994, Франция, Триллер, драма, BDRip] [Режиссерская версия] MVO ОРТ

Статистика раздачи
Размер: 1.46 ГБ | Добавлен: 01 фев 2014, 19:07 | Скачали: 2
Сидеров: 26  [0 байт/сек]    Личеров: 10  [0 байт/сек]

Сообщение Гость » 01 фев 2014, 19:07

Страна: Франция
Жанр: Триллер, драма
Год выпуска: 1994
Продолжительность: 02:12:50

Перевод: Профессиональный (многоголосый закадровый) ОРТ
Cубтитры: нет
Режиссер: Люк Бессон / Luc Besson

В ролях: Жан Рено, Гари Олдман, Натали Портман, Дэнни Айелло, Питер Эппел, Майкл Бадалуччо, Эллен Грин, Фрэнк Сенгер и др.

Описание: Профессиональный убийца Леон, не знающий пощады и жалости, знакомится со своей очаровательной соседкой Матильдой, семью которой расстреливают полицейские, замешанные в торговле наркотиками. Благодаря этому знакомству он впервые испытывает чувство любви, но… как коротка жизнь профессионального убийцы.



Качество видео: BDRip
Формат видео: AVI

Видео: 720x304 (2.37:1), 23.976 fps, XviD build 72 ~1368 kbps avg, 0.26 bit/pixel
Аудио: 48 kHz, AC3 Dolby Digital, 2/0 (L,R) ch, ~192 kbps
Благодарности
За видео спасибо Юрист, за дорожку ОРТ Fikaloid, за синхронизацию formally
MediaInfo
General
Complete name : C:\Documents and Settings\Admin\Рабочий стол\Леон.avi
Format : AVI
Format/Info : Audio Video Interleave
File size : 1.46 GiB
Duration : 2h 12mn
Overall bit rate : 1 570 Kbps
Movie name : Леон: Профессионал / Leon: The Professional
Director : Юpист
Writing application : VirtualDubMod 1.5.10.2 (build 2540/release)
Writing library : VirtualDubMod build 2540/release
Copyright : RG "All films" [rutracker.org]

Video
ID : 0
Format : MPEG-4 Visual
Format profile : Advanced Simple@L5
Format settings, BVOP : 1
Format settings, QPel : No
Format settings, GMC : No warppoints
Format settings, Matrix : Custom
Codec ID : XVID
Codec ID/Hint : XviD
Duration : 2h 12mn
Bit rate : 1 368 Kbps
Width : 720 pixels
Height : 304 pixels
Display aspect ratio : 2.35:1
Frame rate : 23.976 fps
Color space : YUV
Chroma subsampling : 4:2:0
Bit depth : 8 bits
Scan type : Progressive
Compression mode : Lossy
Bits/(Pixel*Frame) : 0.261
Stream size : 1.27 GiB (87%)
Writing library : XviD 72

Audio
ID : 1
Format : AC-3
Format/Info : Audio Coding 3
Mode extension : CM (complete main)
Format settings, Endianness : Big
Codec ID : 2000
Duration : 2h 12mn
Bit rate mode : Constant
Bit rate : 192 Kbps
Channel(s) : 2 channels
Channel positions : Front: L R
Sampling rate : 48.0 KHz
Bit depth : 16 bits
Compression mode : Lossy
Stream size : 182 MiB (12%)
Alignment : Split accross interleaves
Interleave, duration : 42 ms (1.00 video frame)
Interleave, preload duration : 500 ms
Скриншот c названием фильма
Скриншоты
Правила, инструкции, FAQ!!!
Торрент  Добавлен [01 фев 2014, 19:07] Скачать торрент Магнет ссылка
Скачать торрент
[ Размер 15.14 КБ / Просмотров 9 ]

Статус
Проверен 
 
Размер  1.46 ГБ
Приватный: Нет (DHT включён)
.torrent скачан  2
Как залить торрент? | Как скачать Torrent? | Как смотреть и слушать онлайн?  
Гость
 


  • Похожие торренты
    Ответы
    Просмотры
    Последнее сообщение

Вернуться в Триллеры

Кто сейчас на конференции

Сейчас этот форум просматривают: нет зарегистрированных пользователей и гости: 0