Маленькие негодяи спасают положение / The Little Rascals Save the Day (Алекс Замм / Alex Zamm) [2014, США, комедия, семейный, HDRip] Dub

Статистика раздачи
Размер: 1.46 ГБ | Добавлен: 18 май 2014, 09:39 | Скачали: 1
Сидеров: 3  [0 байт/сек]    Личеров: 0  [0 байт/сек]

Сообщение Admin » 18 май 2014, 09:39

Маленькие негодяи спасают положение / The Little Rascals Save the Day

Страна: США
Жанр: комедия, семейный
Год выпуска: 2014
Продолжительность: 01:37:50

Перевод: Профессиональный (дублированный) лицензия
Cубтитры: нет
Оригинальная аудиодорожка: нет

Режиссер: Алекс Замм / Alex Zamm

В ролях: Дорис Робертс, Грег Джерманн, Лекс Медлин, Валери Эзлинн, Джет Юргенсмейер, Дрю Джастис, Коннор Берри, Дженна Ортега, Айзиа Фредерикс, Кемден Грэй

Описание: «Маленькие негодяи» — серия комедийных фильмов о группе соседских мальчиков и девочек и об их приключениях вместе.

Доп. информация:
Kinopoisk
IMDB
Sample

Качество видео: HDRip
Формат видео: AVI

Видео: Xvid 720x400 23.976fps 1 590 Kbps
Аудио: Dolby AC3 48000Hz 6ch 448kbpsMediaInfo
General
Complete name : D:\The.Little.Rascals.Save.the.Day.2014.HDRip.avi
Format : AVI
Format/Info : Audio Video Interleave
File size : 1.46 GiB
Duration : 1h 37mn
Overall bit rate : 2 132 Kbps
Writing application : VirtualDubMod 1.5.10.2 (build 2540/release)
Writing library : VirtualDubMod build 2540/release

Video
ID : 0
Format : MPEG-4 Visual
Format profile : Advanced Simple@L5
Format settings, BVOP : Yes
Format settings, QPel : No
Format settings, GMC : No warppoints
Format settings, Matrix : Custom
Codec ID : XVID
Codec ID/Hint : XviD
Duration : 1h 37mn
Bit rate : 1 590 Kbps
Width : 720 pixels
Height : 400 pixels
Display aspect ratio : 16:9
Frame rate : 23.976 fps
Color space : YUV
Chroma subsampling : 4:2:0
Bit depth : 8 bits
Scan type : Progressive
Compression mode : Lossy
Bits/(Pixel*Frame) : 0.230
Stream size : 1.09 GiB (75%)
Writing library : XviD 1.2.1 (UTC 2008-12-04)

Audio
ID : 1
Format : AC-3
Format/Info : Audio Coding 3
Mode extension : CM (complete main)
Format settings, Endianness : Big
Codec ID : 2000
Duration : 1h 37mn
Bit rate mode : Constant
Bit rate : 448 Kbps
Channel count : 6 channels
Channel positions : Front: L C R, Side: L R, LFE
Sampling rate : 48.0 KHz
Bit depth : 16 bits
Compression mode : Lossy
Stream size : 313 MiB (21%)
Alignment : Split accross interleaves
Скриншот c названием фильма
Скриншоты
Правила, инструкции, FAQ!!!
Торрент  Добавлен [18 май 2014, 09:39] Скачать торрент Магнет ссылка
Скачать торрент
[ Размер 15.17 КБ / Просмотров 10 ]

Статус
Проверен 
 
Размер  1.46 ГБ
Приватный: Нет (DHT включён)
.torrent скачан  1
Как залить торрент? | Как скачать Torrent? | Как смотреть и слушать онлайн?  
Admin
 


  • Похожие торренты
    Ответы
    Просмотры
    Последнее сообщение

Вернуться в Детское, Семейное кино

Кто сейчас на конференции

Сейчас этот форум просматривают: нет зарегистрированных пользователей и гости: 0