Мария, Мирабела / Maria, Mirabella (1981) DVDRip

Статистика раздачи
Размер: 1.37 ГБ | Добавлен: 09 авг 2014, 21:31 | Скачали: 2
Сидеров: 37  [0 байт/сек]    Личеров: 19  [0 байт/сек]

Сообщение Гость » 09 авг 2014, 21:31

Русское название: Мария, Мирабела
Оригинальное название: Maria, Mirabella
Страна: Румыния, СССР
Год выпуска: 1981
Жанр: Сказка, Семейный

Описание фильма:
    Две сестренки решают помочь своим друзьям - лягушонку Кваки, светлячку Скипиричу и бабочке Амидэ. Для этого надо попасть к доброй Лесной Фее, живущей в заколдованном лесу. Как ни страшно было сестренкам, но они все-таки отправились в путешествие, полное волшебных приключений. Лесная Фея помогла отважным сестричкам, и даже не важно, что это все им приснилось....
    Герои этого цветного рисованного, полнометражного мультфильма - лягушонок Кваки, Светлячок и Бабочка дружно жили в лесу. Но случилась беда — Светлячок разучился светить, Бабочка разучилась летать, а лягушонок вмерз в льдину, не успев спрятаться от мороза. Ужас, да? Но, слава Богу, сестры-близнецы Мария и Мирабела с помощью доброй лесной Феи помогли им вернуться в лес, и все стало как прежде...
    Музыкальный мультипликационный и игровой фильм-сказка о двух сестричках-близнецах и их верных друзьях - Лягушонке Кваки, Светлячке и Бабочке. Однажды Кваки вмерз в льдину, Светлячок перестал светить, а Бабочка испугалась летать. Но Мария и Мирабела с доброй Лесной феей помогли им войти в заколдованный лес и вернуть утраченные способности...



Режиссер: Ион Попеску-Гопо, Наталья Бодюл

Актеры: Джилда Манолеску, Меди Маринеску, Ингрид Челия, Ион Попеску-Гопо, Анда Калугарену, Михай Константинеску, Александрина Халич, Паула Радулеску, Адриан Стефанеску

Роли дублировали: Мария Виноградова, Людмила Гнилова, Наталья Гурзо, Рогволд Суховерко, Клара Румянова, Александр Воеводин, Георгий Вицин, Алина Покровская.

Операторы: Алеку Попеску, Борис Котов.
Авторы сценария: Ион Попеску-Гопо, Ион Крянгэ.
Композитор: Евгений Дога.
Художники: Лев Мильчин, Виктор Дудкин, Ион Попеску-Гопо.

Перевод: Дублированный
Дата мировой премьеры: 21 мая 1982

Продолжительность: 01:05:08
Качество видео: DVDRip

Формат видео: AVI
Видео: MPEG4, XviD, 720x400 (16:9), 25.000 fps, 2 350 Kbps (0.326 bit/pixel)
Аудио #1: AC-3, 48.0 KHz, 2 ch, 192 Kbps, CBR Русский, Дублированная
Аудио #2: AC-3, 48.0 KHz, 6 ch, 448 Kbps, CBR Румынский, Оригинальная
Видео
Идентификатор : 0
Формат : MPEG-4 Visual
Профиль формата : Advanced Simple@L5
Параметр BVOP формата : 1
Параметр QPel формата : Нет
Параметр GMC формата : Без точки перехода
Параметр матрицы формата : Выборочная
Идентификатор кодека : XVID
Идентификатор кодека/Подсказка : XviD
Продолжительность : 1 ч. 5 м.
Битрейт : 2350 Кбит/сек
Ширина : 720 пикселей
Высота : 400 пикселей
Соотношение сторон : 16:9
Частота кадров : 25,000 кадров/сек
Цветовое пространство : YUV
Субдискретизация насыщенности : 4:2:0
Битовая глубина : 8 бит
Тип развёртки : Прогрессивная
Метод сжатия : С потерями
Бит/(Пиксели*Кадры) : 0.326
Размер потока : 1,07 Гбайт (78%)
Библиотека кодирования : XviD 1.2.1 (UTC 2008-12-04)

Аудио #1
Идентификатор : 1
Формат : AC-3
Формат/Информация : Audio Coding 3
Расширение режима : CM (complete main)
Идентификатор кодека : 2000
Продолжительность : 1 ч. 5 м.
Вид битрейта : Постоянный
Битрейт : 192 Кбит/сек
Каналы : 2 канала
Расположение каналов : Front: L R
Частота : 48,0 КГц
Битовая глубина : 16 бит
Метод сжатия : С потерями
Размер потока : 89,5 Мбайт (6%)
Выравнивание : Разделение по промежуткам
Продолжительность промежутка : 40 мс. (1,00 видеокадр)
Время предзагрузки промежутка : 500 мс.
Язык : / /

Аудио #2
Идентификатор : 2
Формат : AC-3
Формат/Информация : Audio Coding 3
Расширение режима : CM (complete main)
Идентификатор кодека : 2000
Продолжительность : 1 ч. 5 м.
Вид битрейта : Постоянный
Битрейт : 448 Кбит/сек
Каналы : 6 каналов
Расположение каналов : Front: L C R, Side: L R, LFE
Частота : 48,0 КГц
Битовая глубина : 16 бит
Метод сжатия : С потерями
Размер потока : 209 Мбайт (15%)
Выравнивание : Разделение по промежуткам
Продолжительность промежутка : 40 мс. (1,00 видеокадр)
Время предзагрузки промежутка : 500 мс.
Музыкальная сказка румынского режиссера Иона Попеску-Гопо, где сочетается игровое кино и анимация. Волшебная музыка композитора Евгения Доги сделали этот фильм фаворитом многих поколений. А известнейший мультипликатор Борис Котов вселил живую душу в мультипликационные персонажи. Песни на слова Григория Виеру исполняет Леонид Серебренников.
• 1982 - Специальный приз и диплом Всесоюзного кинофестиваля детских фильмов в Таллине (Эстония).
• 1982 - Приз на МКФ в Джиффоне (Италия).
• 1982 - Большой приз на кинофестивале детских фильмов в Пьятра-Нямце (Румыния).
Скриншоты:



Правила, инструкции, FAQ!!!
Торрент  Добавлен [09 авг 2014, 21:31] Скачать торрент Магнет ссылка
Скачать торрент
[ Размер 14.37 КБ / Просмотров 18 ]

Статус
Проверен 
 
Размер  1.37 ГБ
Приватный: Нет (DHT включён)
.torrent скачан  2
Как залить торрент? | Как скачать Torrent? | Как смотреть и слушать онлайн?  
Гость
 


  • Похожие торренты
    Ответы
    Просмотры
    Последнее сообщение

Вернуться в Детское, Семейное кино

Кто сейчас на конференции

Сейчас этот форум просматривают: нет зарегистрированных пользователей и гости: 1