Мы купили зоопарк / We Bought a Zoo (Кэмерон Кроу / Cameron Crowe) [2011, США, драма, комедия, семейный, BDRip] Dub (Лицензия)

Статистика раздачи
Размер: 1.46 ГБ | Добавлен: 25 янв 2015, 10:37 | Скачали: 0
Сидеров: 90  [0 байт/сек]    Личеров: 30  [0 байт/сек]

Сообщение Гость » 25 янв 2015, 10:37

Страна: США
Студии: Twentieth Century Fox Film Corporation, LBI Entertainment, Vinyl Films
Жанр: драма, комедия, семейный
Год выпуска: 2011
Продолжительность: 02:03:54
Перевод: Профессиональный (дублированный) лицензия
Cубтитры: нет
Режиссер: Кэмерон Кроу / Cameron Crowe
В ролях: Мэтт Дэймон (Benjamin Mee), Скарлетт Йоханссон (Kelly Foster), Томас Хейден Чёрч (Duncan Mee), Колин Форд (Dylan Mee), Мэгги Джонс (Rosie Mee), Энгус МакФадьен (Peter MacCready), Эль Фаннинг (Lily Miska), Патрик Фьюджит (Robin Jones), Джон Майкл Хиггинс (Walter Ferris), Карла Галло (Rhonda Blair).
Описание
:
Лента рассказывает о том, как британское семейство Ми потратило все сбережения, чтобы спасти заброшенный сельский зверинец с двумя сотнями экзотических животных, которым грозила гибель...
Сэмпл: http://multi-up.com/801109
Качество видео: BDRip (Исх.: Blu-ray disc CEE 1080p)
Формат видео: AVI

Видео: XviD build 65, 704x384 (16:9), 23.976 fps, 1491 kbps avg, 0.23 bit/pixel
Аудио: 48 kHz, AC3 Dolby Digital, 2/0 (L,R) ch, 192 kbps avg (Rus Dub)
Общее
Полное имя : D:\We.Bought.a.Zoo.2011.DUB.XviD.AC3.BDRip._by.ZNG505_.avi
Формат : AVI
Формат/Информация : Audio Video Interleave
Размер файла : 1,46 Гбайт
Продолжительность : 2 ч. 3 м.
Общий поток : 1692 Кбит/сек
Программа кодирования : VirtualDubModRus 1.5.10.2 (build 2542/release)
Библиотека кодирования : VirtualDubMod build 2542/release

Видео
Идентификатор : 0
Формат : MPEG-4 Visual
Профиль формата : Advanced Simple@L5
Параметр BVOP формата : 1
Параметр QPel формата : Нет
Параметр GMC формата : Без точки перехода
Параметр матрицы формата : Выборочная
Идентификатор кодека : XVID
Идентификатор кодека/Подсказка : XviD
Продолжительность : 2 ч. 3 м.
Битрейт : 1491 Кбит/сек
Ширина : 704 пикселя
Высота : 384 пикселя
Соотношение сторон : 16:9
Частота кадров : 23,976 кадра/сек
Цветовое пространство : YUV
Субдискретизация насыщенности : 4:2:0
Битовая глубина : 8 бит
Тип развёртки : Прогрессивная
Метод сжатия : С потерями
Бит/(Пиксели*Кадры) : 0.230
Размер потока : 1,29 Гбайт (88%)
Библиотека кодирования : XviD 65

Аудио
Идентификатор : 1
Формат : AC-3
Формат/Информация : Audio Coding 3
Расширение режима : CM (complete main)
Идентификатор кодека : 2000
Продолжительность : 2 ч. 3 м.
Вид битрейта : Постоянный
Битрейт : 192 Кбит/сек
Каналы : 2 канала
Расположение каналов : Front: L R
Частота : 48,0 КГц
Битовая глубина : 16 бит
Метод сжатия : С потерями
Размер потока : 170 Мбайт (11%)
Выравнивание : Разделение по промежуткам
Продолжительность промежутка : 42 мс. (1,00 видеокадр)
Время предзагрузки промежутка : 500 мс.

Правила, инструкции, FAQ!!!
Торрент  Добавлен [25 янв 2015, 10:37] Скачать торрент Магнет ссылка
Скачать торрент
[ Размер 15.15 КБ / Просмотров 16 ]

Статус
Проверен 
 
Размер  1.46 ГБ
Приватный: Нет (DHT включён)
.torrent скачан  0
Как залить торрент? | Как скачать Torrent? | Как смотреть и слушать онлайн?  
Гость
 


  • Похожие торренты
    Ответы
    Просмотры
    Последнее сообщение

Вернуться в Детское, Семейное кино

Кто сейчас на конференции

Сейчас этот форум просматривают: нет зарегистрированных пользователей и гости: 0