Мистер вонючка / Mr. Stink (Деклан Лауни ) [2012, семейный, HDTVRip]

Статистика раздачи
Размер: 802.41 МБ | Добавлен: 09 янв 2013, 17:44 | Скачали: 0
Сидеров: 0  [0 байт/сек]    Личеров: 0  [0 байт/сек]

Сообщение Гость » 09 янв 2013, 17:44

Мистер вонючка / Mr. Stink



Описание: Что получится, если лорд Грэнтэм из "Аббатства Даунтон" станет немытым бездомным, оставаясь при этом аристократом душой? Загадку мистера Вонючки предстоит разгадать под самое Рождество школьнице Хлои. Когда ее мать ударяется с головой в политику, а отец теряет работу и тоскует по прежней жизни рок-гитариста, Хлои встречает странноватого друга - бездомного с собакой. И приглашает его пожить в сарае у дома.


Название: Мистер вонючка
Год выпуска: 2012
Страна: Великобритания
Жанр: семейный
Продолжительность: ~ 01:00:00
Перевод: Профессиональный (многоголосый, закадровый) - Baibako
Субтитры: Нет
Режиссер:

В фильме снимались: Хью Бонневилль, Шеридан Смит, Дэвид Уоллиамс, Стив Пембертон, Джонни Вегас, Изабелла Блейк Томас, Хариш Патель, Нелл Тайгер Фри, Джемма Донован



Перевод: Юлия Луцкая
Озвучка: Юлия Котурбаш, Елена Григорьева, Алексей Кузнецов и Виталий Ткаченко



Качество: HDTVRip
Формат: AVI
Видео кодек: XviD
Аудио кодек: MP3
Видео: AVC, 1500 Кбит/сек 720x304 25,000 кадров/сек
Аудио rus: 48,0 КГц, 2 канала, 192 Кбит/сек
Аудио ger: 48,0 КГц, 2 канала, 192 Кбит/сек

Формат : AVI
Формат/Информация : Audio Video Interleave
Размер файла : 802 Мбайт
Продолжительность : 59 м.
Общий поток : 1891 Кбит/сек

Видео
Идентификатор : 0
Формат : MPEG-4 Visual
Профиль формата : Advanced Simple@L5
Параметр BVOP формата : 2
Параметр QPel формата : Нет
Параметр GMC формата : Без точки перехода
Параметр матрицы формата : Default (H.263)
Идентификатор кодека : XVID
Идентификатор кодека/Подсказка : XviD
Продолжительность : 59 м.
Битрейт : 1500 Кбит/сек
Ширина : 720 пикс.
Высота : 304 пикс.
Соотношение сторон : 2,35:1
Частота кадров : 25,000 кадр/сек
Цветовое пространство : YUV
Подвыборка цветности : 4:2:0
Битовая глубина : 8 бит
Тип развёртки : Прогрессивная
Метод сжатия : С потерями
Бит/(Пиксели*Кадры) : 0.274
Размер потока : 636 Мбайт (79%)
Библиотека кодирования : XviD 1.2.1 (UTC 2008-12-04)

Аудио #1
Идентификатор : 1
Формат : MPEG Audio
Версия формата : Version 1
Профиль формата : Layer 3
Режим : Joint stereo
Расширение режима : MS Stereo
Идентификатор кодека : 55
Идентификатор кодека/Подсказка : MP3
Продолжительность : 59 м.
Вид битрейта : Постоянный
Битрейт : 192 Кбит/сек
Каналы : 2 канала
Частота : 48,0 КГц
Метод сжатия : С потерями
Размер потока : 81,5 Мбайт (10%)
Выравнивание : Соединение по промежуткам
Продолжительность промежутка : 160 мс. (4,00 видеокадра)
Время предзагрузки промежутка : 216 ms
Заголовок : Mr.Stink.HDTVRip.x264.Rus.Eng.BaibaKo.tv.mp4_track_1_russian_audio
Библиотека кодирования : LAME3.99r
Настройки программы : -m j -V 4 -q 2 -lowpass 18.6 -b 192

Аудио #2
Идентификатор : 2
Формат : MPEG Audio
Версия формата : Version 1
Профиль формата : Layer 3
Режим : Joint stereo
Идентификатор кодека : 55
Идентификатор кодека/Подсказка : MP3
Продолжительность : 59 м.
Вид битрейта : Постоянный
Битрейт : 192 Кбит/сек
Каналы : 2 канала
Частота : 48,0 КГц
Метод сжатия : С потерями
Размер потока : 81,5 Мбайт (10%)
Выравнивание : Соединение по промежуткам
Продолжительность промежутка : 160 мс. (4,00 видеокадра)
Время предзагрузки промежутка : 216 ms
Заголовок : Mr.Stink.HDTVRip.x264.Rus.Eng.BaibaKo.tv.mp4_track_2_english_audio
Библиотека кодирования : LAME3.99r
Настройки программы : -m j -V 4 -q 2 -lowpass 18.6 -b 192

Приятного просмотра!
Правила, инструкции, FAQ!!!
Торрент  Добавлен [09 янв 2013, 17:44] Скачать торрент Магнет ссылка
Скачать торрент
[ Размер 16.1 КБ / Просмотров 19 ]

Статус
Проверен 
 
Размер  802.41 МБ
Приватный: Нет (DHT включён)
.torrent скачан  0
Как залить торрент? | Как скачать Torrent? | Как смотреть и слушать онлайн?  
Гость
 


  • Похожие торренты
    Ответы
    Просмотры
    Последнее сообщение

Вернуться в Детское, Семейное кино

Кто сейчас на конференции

Сейчас этот форум просматривают: нет зарегистрированных пользователей и гости: 0