Монтаж / Montage / Mong-ta-joo (2013) DVDRip | L2

Статистика раздачи
Размер: 1.38 ГБ | Добавлен: 29 янв 2014, 08:29 | Скачали: 0
Сидеров: 1  [0 байт/сек]    Личеров: 0  [0 байт/сек]

Сообщение Гость » 29 янв 2014, 08:29

Название: Монтаж
Оригинальное название: Montage / Mong-ta-joo
Год выхода: 2013
Жанр: триллер, детектив, криминал
Режиссер: Чон Гын Соп

В ролях: Ом Чон Хва, Ким Сан Кён, Сон Ён Чан, Чо Хи Бон, Ю Сын Мок, Ли Чжун Хёк, Пак Чоль Мин

О фильме:
15 лет назад была похищена девочка, и похититель исчез без следа. За пять дней до момента окончания срока давности привлечения к уголовной ответственности похитителя, кто-то оставляет цветок на месте того совершенного 15 лет назад преступления. Несколько дней спустя таким же способом было совершено еще одно похищение. Теперь, три человека пытаются любым способом найти похитителя: мать, чья дочь была похищена 15 лет назад; дедушка, внучку которого украли практически у него на глазах, и детектив, который расследовал первое похищение.



Страна: Южная Корея
Продолжительность: 02:00:09
Перевод: Любительский (двухголосый закадровый) [DeadSno & den904]


Кодек: XviD
Качество: DVDRip
Видео: 720x384, 1438 kbps, 29,970 fps, 0,173 Bits/(Pixel*Frame)
Звук: AC3, 48 kHz, 2 ch, 192 kbps
Субтитры: Нет

Релиз от: и

Автор рипа: _Bathory_


General
Complete name : G:Montage.2013.VDRip_by_Bathory.avi
Format : AVI
Format/Info : Audio Video Interleave
File size : 1.38 GiB
Duration : 2h 0mn
Overall bit rate : 1 641 Kbps
Writing application : VirtualDubMod 1.5.10.3 | http://www.virtualdub-fr.org || (build 2550/release)
Writing library : VirtualDubMod build 2550/release

Video
ID : 0
Format : MPEG-4 Visual
Format profile : Advanced Simple@L5
Format settings, BVOP : 1
Format settings, QPel : No
Format settings, GMC : No warppoints
Format settings, Matrix : Default (MPEG)
Codec ID : XVID
Codec ID/Hint : XviD
Duration : 2h 0mn
Bit rate : 1 438 Kbps
Width : 720 pixels
Height : 384 pixels
Display aspect ratio : 1.85:1
Frame rate : 29.970 fps
Color space : YUV
Chroma subsampling : 4:2:0
Bit depth : 8 bits
Scan type : Progressive
Compression mode : Lossy
Bits/(Pixel*Frame) : 0.173
Stream size : 1.21 GiB (88%)
Writing library : XviD 1.2.1 (UTC 2008-12-04)

Audio
ID : 1
Format : AC-3
Format/Info : Audio Coding 3
Mode extension : CM (complete main)
Format settings, Endianness : Big
Codec ID : 2000
Duration : 2h 0mn
Bit rate mode : Constant
Bit rate : 192 Kbps
Channel count : 2 channels
Channel positions : Front: L R
Sampling rate : 48.0 KHz
Bit depth : 16 bits
Compression mode : Lossy
Stream size : 165 MiB (12%)
Alignment : Split accross interleaves
Interleave, duration : 33 ms (1.00 video frame)
Interleave, preload duration : 500 ms

Правила, инструкции, FAQ!!!
Торрент  Добавлен [29 янв 2014, 08:29] Скачать торрент Магнет ссылка
Скачать торрент
[ Размер 14.29 КБ / Просмотров 11 ]

Статус
Проверен 
 
Размер  1.38 ГБ
Приватный: Нет (DHT включён)
.torrent скачан  0
Как залить торрент? | Как скачать Torrent? | Как смотреть и слушать онлайн?  
Гость
 


  • Похожие торренты
    Ответы
    Просмотры
    Последнее сообщение

Вернуться в Триллеры

Кто сейчас на конференции

Сейчас этот форум просматривают: нет зарегистрированных пользователей и гости: 0