Орудие смерти / A-i-deul... (2011) DVDRip | P | лицензия

Статистика раздачи
Размер: 2.19 ГБ | Добавлен: 03 ноя 2013, 00:23 | Скачали: 0
Сидеров: 0  [0 байт/сек]    Личеров: 0  [0 байт/сек]

Сообщение Гость » 03 ноя 2013, 00:23


Страна: Корея Южная / Noori Pictures
Жанр: триллер, криминал
Год выпуска: 2011
Продолжительность: 02:06:17

Перевод: профессиональный (многоголосый, закадровый)
Cубтитры: нет
Оригинальная аудиодорожка: нет

Режиссер: Ли Гю Ман / Kyu-maan Lee

В ролях: Пак Ён У, Рю Сын Рён, Сон Дон Иль, Сон Чжи Ру, Ким Ё Чжин, Пак Пён Ын, Ким Гу Тхэк, Ми-хён Пак, Ли Сан Хи, Ток-чжэ Чжо

Описание: Фильм основан на реальной истории — нераскрытом убийстве, известном в Корее под названием «исчезновение лягушачьих детей». В 1991 году пять учеников начальной школы сказали своим родителям, что собираются наловить лягушек на близлежащей горе. Они никогда не вернулись домой.



Качество: DVDRip / DVD9 R5
Формат: AVI

Видео: 720x384 (1.85:1), 25.000 fps, XVID ~2028 kbps avg, 0.293 bit/pixel
Аудио: Русский 48 kHz, AC3, 6 ch, 448.00 kbps Constant

Раздача от:
Общее
Полное имя : Orudie.smerti.2011.P.DVDRip_[Youtracker]_by_avproh.avi
Формат : AVI
Формат/Информация : Audio Video Interleave
Профиль формата : OpenDML
Размер файла : 2,19 Гбайт
Продолжительность : 2 ч. 6 м.
Общий поток : 2488 Кбит/сек
Программа кодирования : VirtualDubMod 1.5.10.3 | http://www.virtualdub-fr.org || (build 2550/release)
Библиотека кодирования : VirtualDubMod build 2550/release

Видео
Идентификатор : 0
Формат : MPEG-4 Visual
Профиль формата : Advanced Simple@L5
Параметр BVOP формата : 1
Параметр QPel формата : Нет
Параметр GMC формата : Без точки перехода
Параметр матрицы формата : Выборочная
Идентификатор кодека : XVID
Идентификатор кодека/Подсказка : XviD
Продолжительность : 2 ч. 6 м.
Битрейт : 2028 Кбит/сек
Ширина : 720 пикселей
Высота : 384 пикселя
Соотношение сторон : 1,85:1
Частота кадров : 25,000 кадров/сек
Цветовое пространство : YUV
Субдискретизация насыщенности : 4:2:0
Битовая глубина : 8 бит
Тип развёртки : Прогрессивная
Метод сжатия : С потерями
Бит/(Пиксели*Кадры) : 0.293
Размер потока : 1,79 Гбайт (82%)
Библиотека кодирования : XviD 73

Аудио
Идентификатор : 1
Формат : AC-3
Формат/Информация : Audio Coding 3
Расширение режима : CM (complete main)
Параметр Endianness формата : Big
Идентификатор кодека : 2000
Продолжительность : 2 ч. 6 м.
Вид битрейта : Постоянный
Битрейт : 448 Кбит/сек
Каналы : 6 каналов
Расположение каналов : Front: L C R, Side: L R, LFE
Частота : 48,0 КГц
Битовая глубина : 16 бит
Метод сжатия : С потерями
Размер потока : 405 Мбайт (18%)
Выравнивание : Разделение по промежуткам
Продолжительность промежутка : 40 мс. (1,00 видеокадр)
Время предзагрузки промежутка : 500 мс.


Правила, инструкции, FAQ!!!
Торрент  Добавлен [03 ноя 2013, 00:23] Скачать торрент Магнет ссылка
Скачать торрент
[ Размер 11.62 КБ / Просмотров 13 ]

Статус
Проверен 
 
Размер  2.19 ГБ
Приватный: Нет (DHT включён)
.torrent скачан  0
Как залить торрент? | Как скачать Torrent? | Как смотреть и слушать онлайн?  
Гость
 


  • Похожие торренты
    Ответы
    Просмотры
    Последнее сообщение

Вернуться в Триллеры

Кто сейчас на конференции

Сейчас этот форум просматривают: нет зарегистрированных пользователей и гости: 0