Осьминожки со второго этажа / Chobotnice z druheho patra (1986) DVDRip

Статистика раздачи
Размер: 2.04 ГБ | Добавлен: 09 авг 2014, 21:30 | Скачали: 2
Сидеров: 11  [0 байт/сек]    Личеров: 2  [0 байт/сек]

Сообщение Гость » 09 авг 2014, 21:30

Осьминожки со второго этажа / Chobotnice z druheho patra (1986) DVDRip

Русское название: Осьминожки со второго этажа
Оригинальное название: Chobotnice z druheho patra
Год выпуска: 1986
Жанр: Детский, семейный, приключения
Выпущено: Чехословакия, ФРГ, Bayerischer Rundfunk (BR), Filmove Studio Barrandov, Westdeutscher Rundfunk (WDR)

Описание фильма:
Два чудесных создания, поднятых из морских глубин. Сколько тайн и загадок они принесут с собой в наш мир. Фильм рассказывает про двух осьминожек-пришельцев: Синего и Зеленого. Отдыхая на берегу моря, двое детей вытащили из воды удивительную живую глину, которая могла накапливать энергию. Из глины они вылепили двух осьминогов, наделенных разумом.

Режиссер: Жиндрич Полак
Актеры: Мирослав Махачек, Олдрич Кайзер, Отто Симанек, Властимил Бродский, Франтишек Филиповский, Ондрей Хавелка, Ярослав Мока, Павел Зедничек

Продолжительность: 4 х ~ 00:46:00
Перевод: Двуголосый закадровый



Видеокодек: Xvid
Битрейт видео: ~1398 kb/s
Размер кадра: 704 x 528
Качество видео: DVDRip
Аудиокодек: AC3 2.0
Битрейт аудио: 192 kb/s
Общее
Полное имя : Osminozki.so.vtorogo.etaza.(1-4.serija.iz.4).1986.XviD.DVDRip\Osminozki.so.vtorogo.etaza.(1-2.serija.iz.4).1986.XviD.DVDRip.avi
Формат : AVI
Формат/Информация : Audio Video Interleave
Размер файла : 1,02 Гбайт
Продолжительность : 1 ч. 31 м.
Общий поток : 1594 Кбит/сек
Программа кодирования : VirtualDubMod 1.5.4.1 (build 2178/release)
Библиотека кодирования : VirtualDubMod build 2178/release

Видео
Идентификатор : 0
Формат : MPEG-4 Visual
Профиль формата : Advanced Simple@L5
Параметр BVOP формата : 1
Параметр QPel формата : Нет
Параметр GMC формата : Без точки перехода
Параметр матрицы формата : Выборочная
Идентификатор кодека : XVID
Идентификатор кодека/Подсказка : XviD
Продолжительность : 1 ч. 31 м.
Битрейт : 1395 Кбит/сек
Ширина : 704 пикселя
Высота : 528 пикселей
Соотношение сторон : 4:3
Частота кадров : 25,000 кадров/сек
Цветовое пространство : YUV
Субдискретизация насыщенности : 4:2:0
Битовая глубина : 8 бит
Тип развёртки : Прогрессивная
Метод сжатия : С потерями
Бит/(Пиксели*Кадры) : 0.150
Размер потока : 916 Мбайт (88%)
Библиотека кодирования : XviD 1.2.0.dev47 (UTC 2006-11-01)

Аудио
Идентификатор : 1
Формат : AC-3
Формат/Информация : Audio Coding 3
Расширение режима : CM (complete main)
Параметр Endianness формата : Big
Идентификатор кодека : 2000
Продолжительность : 1 ч. 31 м.
Вид битрейта : Постоянный
Битрейт : 192 Кбит/сек
Каналы : 2 канала
Расположение каналов : Front: L R
Частота : 48,0 КГц
Битовая глубина : 16 бит
Метод сжатия : С потерями
Размер потока : 126 Мбайт (12%)
Выравнивание : Разделение по промежуткам
Продолжительность промежутка : 96 мс. (2,40 видеокадра)
Время предзагрузки промежутка : 96 мс.
Язык : Russian
Скриншоты:
Правила, инструкции, FAQ!!!
Торрент  Добавлен [09 авг 2014, 21:30] Скачать торрент Магнет ссылка
Скачать торрент
[ Размер 11.24 КБ / Просмотров 21 ]

Статус
Проверен 
 
Размер  2.04 ГБ
Приватный: Нет (DHT включён)
.torrent скачан  2
Как залить торрент? | Как скачать Torrent? | Как смотреть и слушать онлайн?  
Гость
 


  • Похожие торренты
    Ответы
    Просмотры
    Последнее сообщение

Вернуться в Детское, Семейное кино

Кто сейчас на конференции

Сейчас этот форум просматривают: нет зарегистрированных пользователей и гости: 0