Побег на Ведьмину гору / Escape to Witch Mountain (1975) HDTVRip

Статистика раздачи
Размер: 1.45 ГБ | Добавлен: 09 авг 2014, 21:26 | Скачали: 1
Сидеров: 0  [0 байт/сек]    Личеров: 0  [0 байт/сек]

Сообщение Гость » 09 авг 2014, 21:26

Русское название: Побег на Ведьмину гору
Оригинальное название: Escape to Witch Mountain
Год выпуска: 1975

Жанр: Фантастика, Приключения, Семейный

Описание фильма:
Брат и сестра, Тони и Тиа обладают уникальными способностями, которые хотели бы использовать в своих целях двое злодеев. Один выдает себя за дядюшку Тони и Тии. Другой - известный всему миру богач с дурной репутацией. И находится только один человек, который готов помочь им добраться до «Ведьминой горы».

Режиссер: Джон Хью
Актеры: Эдди Альберт (Jason O'Day), Рэй Милланд (Aristotle Bolt), Дональд Плезенс (Lucas Deranian), Ким Ричардс (Tia Malone), Айк Айсенманн (Tony Malone), Уолтер Барнс (Sheriff Purdy), Рита Шоу (Mrs. Grindley), Денвер Пайл (Uncle Bene), Альфред Райдер (Astrologer), Лоуренс Монтейн (Ubermann), Терри Уилсон (Biff Jenkins), Джордж Чандлер (Grocer)

Качество видео: HDTVRip
Продолжительность: 01:33:20
Субтитры: Отдельным файлом
Язык субтитров: Русский

Перевод: Профессиональный (многоголосый, закадровый)

Видео: XviD; 704x400; 1828 Kbps; 25 fps; 0,26 bit/pix
Аудио 1: AC3 Dolby Digital, 2 ch, 192.00 kbps | многоголосый
Аудио 2: AC3 Dolby Digital, 2 ch, 192.00 kbps | английский

Общее
Полное имя : C:\ZIM\Torrents\EscapetoWitchMountain\Pobeg_na_Vedminu_goru_HDTVRip\Pobeg.na.Vedminu.goru.1975.HDTVRip.avi
Формат : AVI
Формат/Информация : Audio Video Interleave
Размер файла : 1,45 Гбайт
Продолжительность : 1 ч. 33 м.
Общий поток : 2226 Кбит/сек
Название фильма : Побег на Ведьмину гору / Escape to Witch Mountain (1975)
Режиссёр : <VIRUS>
Программа кодирования : VirtualDubMod 1.5.10.2 (build 2540/release) VirtualDubMod build 2540/release

Видео
Идентификатор : 0
Формат : MPEG-4 Visual
Профиль формата : Advanced Simple@L5
Параметр BVOP формата : 2
Параметр QPel формата : Нет
Параметр GMC формата : Без точки перехода
Параметр матрицы формата : Default (MPEG)
Идентификатор кодека : XVID
Идентификатор кодека/Подсказка : XviD
Продолжительность : 1 ч. 33 м.
Битрейт : 1828 Кбит/сек
Ширина : 704 пикселя
Высота : 400 пикселей
Соотношение сторон : 16:9
Частота кадров : 25,000 кадров/сек
Цветовое пространство : YUV
Субдискретизация насыщенности : 4:2:0
Битовая глубина : 8 бит
Тип развёртки : Прогрессивная
Метод сжатия : С потерями
Бит/(Пиксели*Кадры) : 0.260
Размер потока : 1,19 Гбайт (82%)
Библиотека кодирования : XviD 1.2.1 (UTC 2008-12-04)

Аудио #1
Идентификатор : 1
Формат : AC-3
Формат/Информация : Audio Coding 3
Расширение режима : CM (complete main)
Идентификатор кодека : 2000
Продолжительность : 1 ч. 33 м.
Вид битрейта : Постоянный
Битрейт : 192 Кбит/сек
Каналы : 2 канала
Расположение каналов : Front: L R
Частота : 48,0 КГц
Битовая глубина : 16 бит
Метод сжатия : С потерями
Размер потока : 128 Мбайт (9%)
Выравнивание : Разделение по промежуткам
Продолжительность промежутка : 40 мс. (1,00 видеокадр)
Время предзагрузки промежутка : 500 мс.
Язык : un

Аудио #2
Идентификатор : 2
Формат : AC-3
Формат/Информация : Audio Coding 3
Расширение режима : CM (complete main)
Идентификатор кодека : 2000
Продолжительность : 1 ч. 33 м.
Вид битрейта : Постоянный
Битрейт : 192 Кбит/сек
Каналы : 2 канала
Расположение каналов : Front: L R
Частота : 48,0 КГц
Битовая глубина : 16 бит
Метод сжатия : С потерями
Размер потока : 128 Мбайт (9%)
Выравнивание : Разделение по промежуткам
Продолжительность промежутка : 40 мс. (1,00 видеокадр)
Время предзагрузки промежутка : 500 мс.
Скриншоты:


Правила, инструкции, FAQ!!!
Торрент  Добавлен [09 авг 2014, 21:26] Скачать торрент Магнет ссылка
Скачать торрент
[ Размер 15.43 КБ / Просмотров 8 ]

Статус
Проверен 
 
Размер  1.45 ГБ
Приватный: Нет (DHT включён)
.torrent скачан  1
Как залить торрент? | Как скачать Torrent? | Как смотреть и слушать онлайн?  
Гость
 


  • Похожие торренты
    Ответы
    Просмотры
    Последнее сообщение

Вернуться в Детское, Семейное кино

Кто сейчас на конференции

Сейчас этот форум просматривают: нет зарегистрированных пользователей и гости: 0