Помогите, я мальчишка! / Hilfe, ich bin ein Junge! (Оливер Домменгет / Oliver Dommenget) [2003, Германия, Комедия, семейный, DVDRip] VO + Sub Rus + Original Ger

Статистика раздачи
Размер: 785.49 МБ | Добавлен: 22 апр 2014, 11:41 | Скачали: 6
Сидеров: 50  [0 байт/сек]    Личеров: 3  [0 байт/сек]

Сообщение Admin » 22 апр 2014, 11:41

Помогите, я мальчишка! / Hilfe, ich bin ein Junge!

Страна: Германия
Жанр: Комедия, семейный
Год выпуска: 2003
Продолжительность: 01:31:35

Перевод: Одноголосый закадровый
Cубтитры: русские
Оригинальная аудиодорожка: немецкий

Режиссер: Оливер Домменгет / Oliver Dommenget

В ролях: Сара Ханнеманн / Sarah Hannemann, Ник Сейденстикер / Nick Seidensticker, Филипп Бланк / Philipp Blank, Пинкас Браун / Pinkas Braun, Нина Петри / Nina Petri, Стефан Бенсон / Stephan Benson, Таня Шуманн / Tanja Schumann, Доминик Хорвиц / Dominique Horwitz, Мари-Лу Селлем / Marie-Lou Sellem, Антони Бёгнер / Antonie Boegner

Описание: Эмме одиннадцать лет, но как сложна её жизнь! Её мама спит и видит дочку чемпионкой по плаванию, да не простой, а Олимпийской! А тут ещё этот противный Микки, надо же такое придумать – найти какую-то лохматую книжку и прочитать из неё всего одну фразу! Но увы, заклинание подействовало как всегда не вовремя: вот-вот начнётся Национальный чемпионат по плаванию, но теперь мальчик и девочка обменялись телами! И у них есть всего 54 часа на то, чтобы вернуть всё на как было, иначе…

Сэмпл: http://multi-up.com/951492

Качество видео: DVDRip
Формат видео: AVI

Видео: 576x320 (1.80:1), 25 fps, XviD MPEG-4 ~927 kbps avg, 0.20 bit/pixel
Аудио 1: 44.100 kHz, MPEG Layer 3, 2 ch, ~128.00 kbps avg(Русский)
Аудио 2: 44.100 kHz, MPEG Layer 3, 2 ch, ~128.00 kbps avg(Немецкий)
Формат субтитров: softsub (SRT)
Доп. информация о субтитрах: Русские внешние (scouttravel)
MediaInfo
Общее
Полное имя : F:\С моей озвучкой\Помогите, я мальчишка!\Hilfe, ich bin ein Junge!.avi
Формат : AVI
Формат/Информация : Audio Video Interleave
Размер файла : 785 Мбайт
Продолжительность : 1 ч. 31 м.
Общий поток : 1199 Кбит/сек
Программа кодирования : VirtualDubModRus 1.5.10.2 (build 2542/release)
Библиотека кодирования : VirtualDubMod build 2542/release

Видео
Идентификатор : 0
Формат : MPEG-4 Visual
Параметр BVOP формата : Нет
Параметр QPel формата : Нет
Параметр GMC формата : Без точки перехода
Параметр матрицы формата : Default (H.263)
Идентификатор кодека : XVID
Идентификатор кодека/Подсказка : XviD
Продолжительность : 1 ч. 31 м.
Битрейт : 928 Кбит/сек
Ширина : 576 пикселей
Высота : 320 пикселей
Соотношение сторон : 16:9
Частота кадров : 25,000 кадров/сек
Цветовое пространство : YUV
Субдискретизация насыщенности : 4:2:0
Битовая глубина : 8 бит
Тип развёртки : Прогрессивная
Метод сжатия : С потерями
Бит/(Пиксели*Кадры) : 0.201
Размер потока : 608 Мбайт (77%)

Аудио #1
Идентификатор : 1
Формат : MPEG Audio
Версия формата : Version 1
Профиль формата : Layer 3
Режим : Joint stereo
Расширение режима : MS Stereo
Идентификатор кодека : 55
Идентификатор кодека/Подсказка : MP3
Продолжительность : 1 ч. 31 м.
Вид битрейта : Постоянный
Битрейт : 128 Кбит/сек
Каналы : 2 канала
Частота : 44,1 КГц
Метод сжатия : С потерями
Размер потока : 83,9 Мбайт (11%)
Выравнивание : Разделение по промежуткам
Продолжительность промежутка : 40 мс. (1,00 видеокадр)
Время предзагрузки промежутка : 500 мс.

Аудио #2
Идентификатор : 2
Формат : MPEG Audio
Версия формата : Version 1
Профиль формата : Layer 3
Режим : Joint stereo
Расширение режима : MS Stereo
Идентификатор кодека : 55
Идентификатор кодека/Подсказка : MP3
Продолжительность : 1 ч. 31 м.
Вид битрейта : Постоянный
Битрейт : 128 Кбит/сек
Каналы : 2 канала
Частота : 44,1 КГц
Метод сжатия : С потерями
Размер потока : 83,9 Мбайт (11%)
Выравнивание : Разделение по промежуткам
Продолжительность промежутка : 40 мс. (1,00 видеокадр)
Время предзагрузки промежутка : 500 мс.
Скриншоты
Правила, инструкции, FAQ!!!
Торрент  Добавлен [22 апр 2014, 11:41] Скачать торрент Магнет ссылка
Скачать торрент
[ Размер 15.95 КБ / Просмотров 35 ]

Статус
Проверен 
 
Размер  785.49 МБ
Приватный: Нет (DHT включён)
.torrent скачан  6
Как залить торрент? | Как скачать Torrent? | Как смотреть и слушать онлайн?  
Admin
 


  • Похожие торренты
    Ответы
    Просмотры
    Последнее сообщение

Вернуться в Детское, Семейное кино

Кто сейчас на конференции

Сейчас этот форум просматривают: нет зарегистрированных пользователей и гости: 1