Повелитель страниц / The Pagemaster (1994) BDRip

Статистика раздачи
Размер: 1.45 ГБ | Добавлен: 09 авг 2014, 21:27 | Скачали: 0
Сидеров: 21  [0 байт/сек]    Личеров: 3  [0 байт/сек]

Сообщение Гость » 09 авг 2014, 21:27

Год выпуска: 1994
Производство: США
Жанр: Мультфильм, Фэнтези, Мелодрама
Перевод: Многоголосый закадровый
Субтитры: Отсутствуют

Режиссер: Пиксоут Хант, Джо Джонстон
Актеры: Маколей Калкин, Кенан Дж. Хоувл, Алексис Киршнер, Джессика Киршнер, Гай Манскер, Брэндон С. МакКэй, Стефен Шиэн, Эд Бегли мл., Мел Харрис, Кристофер Ллойд

Описание фильма:
Ричайрд Тайлер заходит в библиотеку и, благодаря волшебству, попадает на страницы самых лучших детских книг. Вместе с любимыми героями он участвует в мультипликационных приключениях, так как сам стал мультяшкой.

Дата мировой премьеры: 23 ноября 1994
Продолжительность: 01:15:28
Качество видео: BDRip

Видеокодек: XviD
Битрейт видео: 1907 kbps
Размер кадра: 704x384
Аудио #1: AC3, 5.1, 48,0 КГц, 384 kbps | MVO [Русский]
Аудио #2: AC3, 5.1, 48,0 КГц, 448 kbps | Original [Английский]
Код:
Код: Выделить всё
Формат/Информация                        : Audio Video Interleave
Размер файла                             : 1,45 Гбайт
Продолжительность                        : 1 ч. 15 м.
Общий поток                              : 2753 Кбит/сек
Название фильма                          : Повелитель страниц / The Pagemaster (1994) BDRip
Режиссёр                                 : yaroslaigor
Жанр                                     : мультфильм, фэнтези, комедия
Программа кодирования                    : VirtualDubMod 1.5.10.2 (build 2542/release)
Правообладатель                          : http:/hqclub.net/
Примечание                               : 19.11.2013

Видео
Идентификатор                            : 0
Формат                                   : MPEG-4 Visual
Профиль формата                          : Advanced Simple@L5
Параметр BVOP формата                    : 1
Параметр QPel формата                    : Нет
Параметр GMC формата                     : Без точки перехода
Параметр матрицы формата                 : Выборочная
Идентификатор кодека                     : XVID
Идентификатор кодека/Подсказка           : XviD
Продолжительность                        : 1 ч. 15 м.
Битрейт                                  : 1907 Кбит/сек
Ширина                                   : 704 пикселя
Высота                                   : 384 пикселя
Соотношение сторон                       : 1,85:1
Частота кадров                           : 23,976 кадра/сек
Цветовое пространство                    : YUV
Субдискретизация насыщенности            : 4:2:0
Битовая глубина                          : 8 бит
Тип развёртки                            : Прогрессивная
Метод сжатия                             : С потерями
Бит/(Пиксели*Кадры)                      : 0.294
Размер потока                            : 1,01 Гбайт (69%)
Библиотека кодирования                   : XviD 65

Аудио #1
Идентификатор                            : 1
Формат                                   : AC-3
Формат/Информация                        : Audio Coding 3
Расширение режима                        : CM (complete main)
Параметр Endianness формата              : Big
Идентификатор кодека                     : 2000
Продолжительность                        : 1 ч. 15 м.
Вид битрейта                             : Постоянный
Битрейт                                  : 384 Кбит/сек
Каналы                                   : 6 каналов
Расположение каналов                     : Front: L C R, Side: L R, LFE
Частота                                  : 48,0 КГц
Битовая глубина                          : 16 бит
Метод сжатия                             : С потерями
Размер потока                            : 207 Мбайт (14%)
Выравнивание                             : Разделение по промежуткам
Продолжительность промежутка             : 42  мс. (1,00 видеокадр)
Время предзагрузки промежутка            : 500  мс.

Аудио #2
Идентификатор                            : 2
Формат                                   : AC-3
Формат/Информация                        : Audio Coding 3
Расширение режима                        : CM (complete main)
Параметр Endianness формата              : Big
Идентификатор кодека                     : 2000
Продолжительность                        : 1 ч. 15 м.
Вид битрейта                             : Постоянный
Битрейт                                  : 448 Кбит/сек
Каналы                                   : 6 каналов
Расположение каналов                     : Front: L C R, Side: L R, LFE
Частота                                  : 48,0 КГц
Битовая глубина                          : 16 бит
Метод сжатия                             : С потерями
Размер потока                            : 242 Мбайт (16%)
Выравнивание                             : Разделение по промежуткам
Продолжительность промежутка             : 42  мс. (1,00 видеокадр)
Время предзагрузки промежутка            : 500  мс.
Скриншоты:




Правила, инструкции, FAQ!!!
Торрент  Добавлен [09 авг 2014, 21:27] Скачать торрент Магнет ссылка
Скачать торрент
[ Размер 15.23 КБ / Просмотров 7 ]

Статус
Проверен 
 
Размер  1.45 ГБ
Приватный: Нет (DHT включён)
.torrent скачан  0
Как залить торрент? | Как скачать Torrent? | Как смотреть и слушать онлайн?  
Гость
 


  • Похожие торренты
    Ответы
    Просмотры
    Последнее сообщение

Вернуться в Детское, Семейное кино

Кто сейчас на конференции

Сейчас этот форум просматривают: нет зарегистрированных пользователей и гости: 0