Повелитель страниц / The Pagemaster (1994) BDRip [720p]

Статистика раздачи
Размер: 6.28 ГБ | Добавлен: 09 авг 2014, 21:27 | Скачали: 0
Сидеров: 6  [0 байт/сек]    Личеров: 1  [0 байт/сек]

Сообщение Гость » 09 авг 2014, 21:27

Год выпуска: 1994
Производство: США, Twentieth Century Fox
Жанр: Фэнтези, Приключения, Семейный
Перевод: Профессиональный (многоголосый закадровый), Авторский одноголосый
Субтитры: Вшитые (отключаемые)
Язык субтитров: Русские, английские

Режиссер: Пиксоут Хант, Джо Джонстон
Актеры: Маколей Калкин, Кристофер Ллойд, Мел Харрис, Патрик Стюарт, Вупи Голдберг, Эд Бегли, Алексис Киршнер, Брэндон С. МакКэй, Стефен Шиэн, Фрэнк Уэлкер, Леонард Нимой, Ричард Эрдман, Роберт Пикардо, Фил Хартман

Описание фильма:
Прекрасное сочетание актерского кино и мультипликации! Десятилетний пессимист Ричард Тайлер (давно всем известный малолетний ветеран экрана Маколэй Калкин) строит свою жизнь основываясь на статистике и боится практически всего на свете. Его родители пытались развить в сыне храбрость, но их попытки принесли мало пользы. Как-то раз, пытаясь спастись от ливня с грозой, забегает в первое попавшееся на пути здание, которое оказывается библиотекой. В этой библиотеке может произойти любое чудо. Теперь этот мальчик, превратившись в мультяшку, вместе со своими любимыми героями книг, отправляется в увлекательное мультипликационное путешествие, где сказочный Повелитель Страниц, пронесет его по просторам волшебной страны, научит оказывать помощь другим и преодолевать любые трудности на своем пути!..



Продолжительность: 01:15:24
Качество видео: BDRip

Видеокодек: MPEG-4 AVC/H.264
Битрейт видео: ~8 919 Кбит/с
Размер кадра: 1280x690

Аудио 1: Русский AC3, 3/2 (L,C,R,l,r) + LFE ch, ~448.00 kbps avg | Многоголосый закадровый
Аудио 2: Русский AC3, 3/2 (L,C,R,l,r) + LFE ch, ~640.00 kbps avg | Одноголосый закадровый, Ю.Сербин
Аудио 3: Русский AC3, 3/2 (L,C,R,l,r) + LFE ch, ~640.00 kbps avg | Oдноголосый закадровый, С.Визгунов
Аудио 4: Русский AC3, 2/0 (L,R) ch, ~192.00 kbps avg | Одноголосый закадровый, В.Дохалов
Аудио 5: Русский AC3, 2/0 (L,R) ch, ~192.00 kbps avg | Одноголосый закадровый, А.Пронин
Аудио 6: Английский AC3, 3/2 (L,C,R,l,r) + LFE ch, ~640.00 kbps avg
General
Complete name : O:\Pagemaster.1994.720p.mkv
Format : Matroska
File size : 6.28 GiB
Duration : 1h 15mn
Overall bit rate : 11.9 Mbps
Encoded date : UTC 2013-11-05 14:52:06
Writing application : mkvmerge v6.2.0 ('Promised Land') built on Apr 28 2013 12:22:01
Writing library : libebml v1.3.0 + libmatroska v1.4.0

Video
ID : 1
Format : AVC
Format/Info : Advanced Video Codec
Format profile :
Format settings, CABAC : Yes
Format settings, ReFrames : 9 frames
Muxing mode : Container profile=Unknown@4.1
Codec ID : V_MPEG4/ISO/AVC
Duration : 1h 15mn
Bit rate : 8 919 Kbps
Nominal bit rate : 9 164 Kbps
Width : 1 280 pixels
Height : 690 pixels
Display aspect ratio : 1.855
Frame rate : 23.976 fps
Resolution : 8 bits
Colorimetry : 4:2:0
Scan type : Progressive
Bits/(Pixel*Frame) : 0.421
Stream size : 4.70 GiB (75%)
Writing library : x264 core 133 r2334 a3ac64b
Encoding settings : cabac=1 / ref=9 / deblock=1:-3:-3 / analyse=0x3:0x113 / me=umh / subme=11 / psy=1 / psy_rd=1.00:0.20 / mixed_ref=1 / me_range=32 / chroma_me=1 / trellis=2 / 8x8dct=1 / cqm=0 / deadzone=21,11 / fast_pskip=0 / chroma_qp_offset=-3 / threads=3 / lookahead_threads=1 / sliced_threads=0 / nr=0 / decimate=0 / interlaced=0 / bluray_compat=0 / constrained_intra=0 / bframes=10 / b_pyramid=2 / b_adapt=2 / b_bias=0 / direct=3 / weightb=1 / open_gop=0 / weightp=2 / keyint=240 / keyint_min=23 / scenecut=40 / intra_refresh=0 / rc_lookahead=40 / rc=2pass / mbtree=0 / bitrate=9164 / ratetol=1.0 / qcomp=0.60 / qpmin=0 / qpmax=69 / qpstep=4 / cplxblur=20.0 / qblur=0.5 / vbv_maxrate=50000 / vbv_bufsize=50000 / nal_hrd=none / ip_ratio=1.40 / pb_ratio=1.30 / aq=1:1.00

Audio #1
ID : 2
Format : AC-3
Format/Info : Audio Coding 3
Codec ID : A_AC3
Duration : 1h 15mn
Bit rate mode : Constant
Bit rate : 448 Kbps
Channel(s) : 6 channels
Channel positions : Front: L C R, Surround: L R, LFE
Sampling rate : 48.0 KHz
Stream size : 242 MiB (4%)
Title : AC3 6 ch 448 kbps MVO
Language : Russian

Audio #2
ID : 3
Format : AC-3
Format/Info : Audio Coding 3
Codec ID : A_AC3
Duration : 1h 15mn
Bit rate mode : Constant
Bit rate : 640 Kbps
Channel(s) : 6 channels
Channel positions : Front: L C R, Surround: L R, LFE
Sampling rate : 48.0 KHz
Stream size : 345 MiB (5%)
Title : AC3 6 ch 640 kbps Юрий Сербин
Language : Russian

Audio #3
ID : 4
Format : AC-3
Format/Info : Audio Coding 3
Codec ID : A_AC3
Duration : 1h 15mn
Bit rate mode : Constant
Bit rate : 640 Kbps
Channel(s) : 6 channels
Channel positions : Front: L C R, Surround: L R, LFE
Sampling rate : 48.0 KHz
Stream size : 345 MiB (5%)
Title : AC3 6 ch 640 kbps Сергей Визгунов
Language : Russian

Audio #4
ID : 5
Format : AC-3
Format/Info : Audio Coding 3
Codec ID : A_AC3
Duration : 1h 15mn
Bit rate mode : Constant
Bit rate : 192 Kbps
Channel(s) : 2 channels
Channel positions : L R
Sampling rate : 48.0 KHz
Stream size : 104 MiB (2%)
Title : AC3 2 ch 192 kbps Вартан Дохалов
Language : Russian

Audio #5
ID : 6
Format : AC-3
Format/Info : Audio Coding 3
Codec ID : A_AC3
Duration : 1h 15mn
Bit rate mode : Constant
Bit rate : 192 Kbps
Channel(s) : 2 channels
Channel positions : L R
Sampling rate : 48.0 KHz
Stream size : 104 MiB (2%)
Title : AC3 2 ch 192 kbps А.Пронин
Language : Russian

Audio #6
ID : 7
Format : AC-3
Format/Info : Audio Coding 3
Codec ID : A_AC3
Duration : 1h 15mn
Bit rate mode : Constant
Bit rate : 640 Kbps
Channel(s) : 6 channels
Channel positions : Front: L C R, Surround: L R, LFE
Sampling rate : 48.0 KHz
Stream size : 345 MiB (5%)
Title : AC3 6 ch 640 kbps

Text #1
ID : 8
Format : UTF-8
Codec ID : S_TEXT/UTF8
Codec ID/Info : UTF-8 Plain Text
Language : Russian

Text #2
ID : 9
Format : UTF-8
Codec ID : S_TEXT/UTF8
Codec ID/Info : UTF-8 Plain Text

Menu
00:00:00.000 : :Main Titles
00:03:47.894 : :Afraid
00:07:56.224 : :The Library
00:12:48.559 : :An Illustration
00:16:47.005 : :Adventure
00:19:19.907 : :Fantasy
00:22:57.501 : :Horror
00:31:02.443 : :To the Exit
00:33:11.823 : :Captain Ahab
00:36:15.797 : :Pirates
00:39:46.884 : :Treasure Island
00:45:45.826 : :The Library Card
00:51:23.330 : :The Dragon
00:57:08.216 : :Swallowed Whole
00:59:34.737 : :The Pagemaster
01:02:53.102 : :Back to the Presen
01:05:08.696 : :He's Home!
01:07:44.685 : :End Titles
01:15:28.148 : :End

Скриншоты:

Правила, инструкции, FAQ!!!
Торрент  Добавлен [09 авг 2014, 21:27] Скачать торрент Магнет ссылка
Скачать торрент
[ Размер 32.11 КБ / Просмотров 13 ]

Статус
Проверен 
 
Размер  6.28 ГБ
Приватный: Нет (DHT включён)
.torrent скачан  0
Как залить торрент? | Как скачать Torrent? | Как смотреть и слушать онлайн?  
Гость
 


  • Похожие торренты
    Ответы
    Просмотры
    Последнее сообщение

Вернуться в Детское, Семейное кино

Кто сейчас на конференции

Сейчас этот форум просматривают: нет зарегистрированных пользователей и гости: 1