Приключения на ранчо "Гора Гризли" / Horse Crazy 2: The Legend of Grizzly Mountain / Adventures of Grizzly Mountain (Эрик Хендершот / Eric Hendershot) [2010, США, семейное кино, SAT]

Статистика раздачи
Размер: 2.55 ГБ | Добавлен: 17 фев 2014, 11:46 | Скачали: 3
Сидеров: 1  [0 байт/сек]    Личеров: 3  [0 байт/сек]

Сообщение Admin » 17 фев 2014, 11:46

Приключения на ранчо "Гора Гризли" / Horse Crazy 2: The Legend of Grizzly Mountain / Adventures of Grizzly Mountain (Эрик Хендершот / Eric Hendershot)

Год: 2010
Страна: США
Жанр: Семейное кино
Продолжительность: 01:25:52
Перевод: Профессиональный (многоголосый, закадровый)
Язык перевода: Русский
Режиссёр: Эрик Хендершот / Eric Hendershot
В ролях: Далин Кристиансен, Дэвид Стивенс, Бриттани Армстронг, Кэролайн МакЛарен, медведь Барт и другие

Канал:

Автор записи: Nikolay_-_-

Сэмпл.

Описание: Приключенческий фильм. Банк пытается отобрать за долги ранчо «Гора Гризли» у его владельцев. Но внучка хозяина Бэлл верит, что семье поможет её покровитель – огромный медведь Тор...

Качество: SAT
Формат: TS
Видео: MPEG2; 720x576 (1024x576) (16:9) ; 25.000 fps; 3844 kbps
Аудио: AC-3; 48000 Hz; 192 kbps; 2 channels
MediaInfo
Общее
Идентификатор : 1 (0x1)
Полное имя : F:\Закачки\Adventures on Grizzly Mountains-2010-Nikolay_-_-.ts
Формат : MPEG-TS
Размер файла : 2,55 Гбайт
Продолжительность : 1 ч. 25 м.
Режим общего битрейта : Переменный
Общий поток : 4247 Кбит/сек
Максимальный общий битрейт : 35,5 Мбит/сек

Видео
Идентификатор : 4113 (0x1011)
Идентификатор меню : 1 (0x1)
Формат : MPEG Video
Версия формата : Version 2
Профиль формата : Main@Main
Параметр BVOP формата : Да
Параметр матрицы формата : Выборочная
Параметр GOP формата : M=3, N=36
Идентификатор кодека : 2
Продолжительность : 1 ч. 25 м.
Вид битрейта : Переменный
Битрейт : 3844 Кбит/сек
Максимальный битрейт : 15,0 Мбит/сек
Ширина : 720 пикселей
Высота : 576 пикселей
Соотношение сторон : 16:9
Частота кадров : 25,000 кадров/сек
Стандарт вещания : PAL
Цветовое пространство : YUV
Субдискретизация насыщенности : 4:2:0
Битовая глубина : 8 бит
Тип развёртки : Чересстрочная
Порядок развёртки : Верхнее поле первое
Метод сжатия : С потерями
Бит/(Пиксели*Кадры) : 0.371
Размер потока : 2,31 Гбайт (90%)

Аудио
Идентификатор : 4352 (0x1100)
Идентификатор меню : 1 (0x1)
Формат : AC-3
Формат/Информация : Audio Coding 3
Расширение режима : CM (complete main)
Параметр Endianness формата : Big
Идентификатор кодека : 129
Продолжительность : 1 ч. 25 м.
Вид битрейта : Постоянный
Битрейт : 192 Кбит/сек
Каналы : 2 канала
Расположение каналов : Front: L R
Частота : 48,0 КГц
Битовая глубина : 16 бит
Метод сжатия : С потерями
Размер потока : 118 Мбайт (5%)
Язык : Russian
Скриншоты

Правила, инструкции, FAQ!!!
Торрент  Добавлен [17 фев 2014, 11:46] Скачать торрент Магнет ссылка
Скачать торрент
[ Размер 13.26 КБ / Просмотров 11 ]

Статус
Проверен 
 
Размер  2.55 ГБ
Приватный: Нет (DHT включён)
.torrent скачан  3
Как залить торрент? | Как скачать Torrent? | Как смотреть и слушать онлайн?  
Admin
 


  • Похожие торренты
    Ответы
    Просмотры
    Последнее сообщение

Вернуться в Детское, Семейное кино

Кто сейчас на конференции

Сейчас этот форум просматривают: нет зарегистрированных пользователей и гости: 1