Приключения в каникулы / Spadla z oblakov (1978) DVDRip [H.264] (13 из 13 серий)

Статистика раздачи
Размер: 6.49 ГБ | Добавлен: 09 авг 2014, 21:28 | Скачали: 1
Сидеров: 13  [0 байт/сек]    Личеров: 1  [0 байт/сек]

Сообщение Гость » 09 авг 2014, 21:28

Год выпуска: 1978
Страны: Чехословакия
Жанры: фантастика, фэнтези, комедия, приключения, семейный
Продолжительность: 13 серий по ~00:28:39
Перевод: Профессиональный (многоголосый закадровый)

Режиссер: Радим Цврчек
Сценарий: Вацлав Боровичка
Оператор: Карел Копэцки
Композитор : Гарри Мацуорек
Художник: Зденек Розкопал

В ролях: Зузана Правняньска / Zuzana Pravnanska (Майка), Матей Ландл / Matej Landl (Карол), Светлана Майбова / Svetlana Majbova (Катка), Любор Чайка / Lubor Cajka (Славо), Мария Хайкова / Maria Hajkova (Бабушка), Франтишек Цварик / Frantisek Zvarik (Валко), Петер Шольц / Peter Scholtz (Эмиль), Повол Ларцар / Pavol Larzar (Ферко)


Описание: История о необычной инопланетной девочке Майке с планеты Гурун, попавшей к нам на Землю в небольшой словацкий городок Чабовец, где она знакомится с местными ребятами и с которыми переживает захватывающие приключения.
Премьера (мир): 3 мая 1981
Релиз-группа: by almikl ® &

Субтитры: нет

Качество: DVDRip-AVC
Формат: MKV
Видео кодек: H.264 (AVC)
Аудио кодек: AC3
Видео: 688x522 (4:3), 25.000 fps, AVC, 2 109 Kbps
Аудио:
Аудио #1: AC3, 192 Kbps, 48.0 KHz, 2 ch русский
Аудио #2: AC3, 192 Kbps, 48.0 KHz, 2 ch словацкий
Код:
Код: Выделить всё
General
Complete name                    : 01.Явление.mkv
Format                           : Matroska
File size                        : 511 MiB
Duration                         : 28mn 39s
Overall bit rate                 : 2 494 Kbps
Encoded date                     : UTC 2013-11-11 07:53:52
Writing application              : mkvmerge v6.0.0 ('Coming Up For Air') built on Jan 20 2013 09:52:00
Writing library                  : libebml v1.3.0 + libmatroska v1.4.0

Video
ID                               : 1
Format                           : AVC
Format/Info                      : Advanced Video Codec
Format profile                   :
Format settings, CABAC           : Yes
Format settings, ReFrames        : 6 frames
Muxing mode                      : Container profile=Unknown@4.1
Codec ID                         : V_MPEG4/ISO/AVC
Duration                         : 28mn 39s
Bit rate                         : 2 109 Kbps
Width                            : 688 pixels
Height                           : 522 pixels
Display aspect ratio             : 4:3
Frame rate                       : 25.000 fps
Color space                      : YUV
Chroma subsampling               : 4:2:0
Bit depth                        : 8 bits
Scan type                        : Progressive
Bits/(Pixel*Frame)               : 0.235
Stream size                      : 422 MiB (83%)
Writing library                  : x264 core 129 r2245 bc13772
Encoding settings                : cabac=1 / ref=6 / deblock=1:-1:-1 / analyse=0x3:0x113 / me=umh / subme=10 / psy=1 / psy_rd=1.00:0.15 / mixed_ref=1 / me_range=32 / chroma_me=1 / trellis=2 / 8x8dct=1 / cqm=0 / deadzone=21,11 / fast_pskip=1 / chroma_qp_offset=-3 / threads=12 / lookahead_threads=2 / sliced_threads=0 / nr=0 / decimate=1 / interlaced=0 / bluray_compat=0 / constrained_intra=0 / bframes=10 / b_pyramid=2 / b_adapt=2 / b_bias=0 / direct=1 / weightb=1 / open_gop=0 / weightp=2 / keyint=250 / keyint_min=25 / scenecut=40 / intra_refresh=0 / rc_lookahead=40 / rc=2pass / mbtree=1 / bitrate=2109 / ratetol=1.0 / qcomp=0.60 / qpmin=10 / qpmax=51 / qpstep=4 / cplxblur=20.0 / qblur=0.5 / ip_ratio=1.40 / aq=1:1.00

Audio #1
ID                               : 2
Format                           : AC-3
Format/Info                      : Audio Coding 3
Mode extension                   : CM (complete main)
Codec ID                         : A_AC3
Duration                         : 28mn 39s
Bit rate mode                    : Constant
Bit rate                         : 192 Kbps
Channel(s)                       : 2 channels
Channel positions                : Front: L R
Sampling rate                    : 48.0 KHz
Bit depth                        : 16 bits
Stream size                      : 39.4 MiB (8%)

Audio #2
ID                               : 3
Format                           : AC-3
Format/Info                      : Audio Coding 3
Mode extension                   : CM (complete main)
Codec ID                         : A_AC3
Duration                         : 28mn 39s
Bit rate mode                    : Constant
Bit rate                         : 192 Kbps
Channel(s)                       : 2 channels
Channel positions                : Front: L R
Sampling rate                    : 48.0 KHz
Bit depth                        : 16 bits
Stream size                      : 39.4 MiB (8%)
Фильм снят по мотивам книги Вацлава Боровички «Упавшая с небес».
1 01.Явление
2 02.Летательный аппарат
3 03.Свадебное платье
4 04.Налёт
5 05.Банкет
6 06.Папа всё уладит
7 07.Секретарь
8 08.Таинственный иностранец
9 09.Операция Одуванчик
10 10.Прогулка на ракете
11 11.Похищение
12 12.В тире
13 13.Прощание
Скриншоты:

Правила, инструкции, FAQ!!!
Торрент  Добавлен [09 авг 2014, 21:28] Скачать торрент Магнет ссылка
Скачать торрент
[ Размер 18.25 КБ / Просмотров 14 ]

Статус
Проверен 
 
Размер  6.49 ГБ
Приватный: Нет (DHT включён)
.torrent скачан  1
Как залить торрент? | Как скачать Torrent? | Как смотреть и слушать онлайн?  
Гость
 


  • Похожие торренты
    Ответы
    Просмотры
    Последнее сообщение

Вернуться в Детское, Семейное кино

Кто сейчас на конференции

Сейчас этот форум просматривают: нет зарегистрированных пользователей и гости: 0