Прогулки с динозаврами / Walking with Dinosaurs (2013) HDRip

Статистика раздачи
Размер: 699.72 МБ | Добавлен: 09 авг 2014, 21:28 | Скачали: 0
Сидеров: 7  [0 байт/сек]    Личеров: 1  [0 байт/сек]

Сообщение Гость » 09 авг 2014, 21:28

Год выпуска: 2013
Производство: США, Великобритания, Индия / Animal Logic, BBC Earth, BBC Worldwide
Жанр: Приключения, Семейный, Анимация

Описание фильма:
«Прогулки с динозаврами» — это увлекательное путешествие с полным погружением в 3D-реальность, созданную по инновационной технологии CGI. Мы увидим, как выглядели динозавры, как они жили и с какими опасностями им пришлось столкнуться. Главный герой истории — храбрый динозаврик Патчи, он самый маленький в семье, но именно ему предстоит стать лидером и спасти своих сородичей.

Режиссер: Бэрри Кук, Нил Найтингейл
Актеры: Чарли Роу, Карл Урбан, Ангури Райс, Джон Легуизамо, Джастин Лонг, Скайлер Стоун, Тия Сиркар, Клэй Сэвадж, Джуд Тинсели, Мэри Мэтилин Маусер

Продолжительность: 01:27:23
Качество видео: HDRip
Перевод: Дублированный (лицензия)
Вид субтитров: Отсутствуют



Дата мировой премьеры: 14 декабря 2013
Дата российской премьеры: 19 декабря 2013, «Двадцатый Век Фокс СНГ»
Дата украинской премьеры: 19 декабря 2013, «Ukrainian Film Distribution»
Дата выхода DVD / Blu-Ray релиза: 10 апреля 2014, «Двадцатый Век Фокс СНГ»

Видеокодек: Xvid
Битрейт видео: ~982 Kbit/s
Размер кадра: 688 x 288
Аудиокодек: AC3 2.0
Битрейт аудио: 128 Kbit/s
Общее
Полное имя : D:\Торренты\РЕЛИЗЫ\Прогулки с динозаврами 3D.2013.HDRip.700Mb.avi
Формат : AVI
Формат/Информация : Audio Video Interleave
Размер файла : 700 Мбайт
Продолжительность : 1 ч. 27 м.
Общий поток : 1120 Кбит/сек
Программа кодирования : VirtualDubMod 1.5.10.2 (build 2540/release)
Библиотека кодирования : VirtualDubMod build 2540/release

Видео
Идентификатор : 0
Формат : MPEG-4 Visual
Профиль формата : Advanced Simple@L5
Параметр BVOP формата : 2
Параметр QPel формата : Нет
Параметр GMC формата : Без точки перехода
Параметр матрицы формата : Выборочная
Идентификатор кодека : XVID
Идентификатор кодека/Подсказка : XviD
Продолжительность : 1 ч. 27 м.
Битрейт : 982 Кбит/сек
Ширина : 688 пикс.
Высота : 288 пикс.
Соотношение сторон : 2,35:1
Частота кадров : 23,976 кадр/сек
Цветовое пространство : YUV
Подвыборка цветности : 4:2:0
Битовая глубина : 8 бит
Тип развёртки : Прогрессивная
Метод сжатия : С потерями
Бит/(Пиксели*Кадры) : 0.207
Размер потока : 614 Мбайт (88%)
Библиотека кодирования : XviD 1.2.1 (UTC 2008-12-04)

Аудио
Идентификатор : 1
Формат : AC-3
Формат/Информация : Audio Coding 3
Расширение режима : CM (complete main)
Идентификатор кодека : 2000
Продолжительность : 1 ч. 27 м.
Вид битрейта : Постоянный
Битрейт : 128 Кбит/сек
Каналы : 2 канала
Расположение каналов : Front: L R
Частота : 48,0 КГц
Битовая глубина : 16 бит
Метод сжатия : С потерями
Размер потока : 80,0 Мбайт (11%)
Выравнивание : Разделение по промежуткам
Продолжительность промежутка : 42 мс. (1,00 видеокадр)
Время предзагрузки промежутка : 500 ms


Скриншоты:

Правила, инструкции, FAQ!!!
Торрент  Добавлен [09 авг 2014, 21:28] Скачать торрент Магнет ссылка
Скачать торрент
[ Размер 14.52 КБ / Просмотров 15 ]

Статус
Проверен 
 
Размер  699.72 МБ
Приватный: Нет (DHT включён)
.torrent скачан  0
Как залить торрент? | Как скачать Torrent? | Как смотреть и слушать онлайн?  
Гость
 


  • Похожие торренты
    Ответы
    Просмотры
    Последнее сообщение

Вернуться в Детское, Семейное кино

Кто сейчас на конференции

Сейчас этот форум просматривают: нет зарегистрированных пользователей и гости: 1