Рождественская История 3Д / A Christmas Carol 3D (Роберт Земекис / Robert Zemeckis) [2009, США, Мультипликация, семейный, HDRip-AVC] DUB | Anaglyph / Анаглиф

Статистика раздачи
Размер: 1.64 ГБ | Добавлен: 07 сен 2016, 17:35 | Скачали: 0
Сидеров: 2  [0 байт/сек]    Личеров: 1  [0 байт/сек]

Сообщение Гость » 07 сен 2016, 17:35

Рождественская История 3Д / A Christmas Carol 3D


«Season's Greedings»


Страна: США
Жанр: Мультипликация, семейный
Год выпуска: 2009
Продолжительность: 01:35:48
Перевод: Профессиональный (дублированный)
Cубтитры: нет
Режиссер: Роберт Земекис / Robert Zemeckis

Роли озвучивали: Джим Керри (Scrooge / Ghost of Christmas Past / Scrooge as a Young Boy / Scrooge as a Teenage Boy / Scrooge as a Young Man / Scrooge as a Middle-Aged Man / Ghost), Стив Валентайн (Funerary Undertaker / Topper), Дэрил Сабара (Undertaker's Apprentice / Tattered Caroler / Beggar Boy / Peter Cratchit / Well-Dressed Caroler), Сэйдж Райан (Tattered Caroler), Эмбер Гейни Миде (Tattered Caroler / Well-Dressed Caroler), Райан Очоа (Tattered Caroler / Beggar Boy / Young Cratchit Boy / Ignorance Boy / Young Boy with Sleigh / Tiny Tim), Бобби Пейдж (Tattered Caroler / Well-Dressed Caroler), Рон Боттитта (Tattered Caroler / Well-Dressed Caroler), Сэмми Ханратти (Beggar Boy / Young Cratchit Girl / Want Girl), Джулиан Холлоуэй (Fat Cook / Portly Gentleman #2 / Business Man #3), Гари Олдман (Bob Cratchit / Marley / Tiny Tim), Колин Фёрт (Fred)

Описание: Это викторианская поучительная история о старом и ожесточившемся скупердяе Эбенезере Скрудже, который в течение одной ночи переживает испытание глубокого очищения. Мистер Скрудж - финансист/денежный меняла, который посвятил всю свою жизнь накоплению богатства. Он презирает всё, кроме денег, включая дружбу, любовь и рождественские праздники.

Релиз группы:
Автор рипа:

Тематические ссылки: ,

Для просмотра 3D требуются анаглифные очки



Качество видео: HDRip - AVC [Исходник BDRip 720p]
Формат видео: MKV
Формат 3D: Anaglyph / Анаглиф red'cyan
Видео кодек: x264
Аудио кодек: AC3
Видео: AVC;1024x576; 23.976 fps; 2076 Kbps; 16:9
Аудио: AC3; 384 Kbps; 48.0 KHz; 6ch; (Front: L C R, Side: L R, LFE)
General
UniqueID : 240148127431361202113187343004271331232 (0xB4AAD8D31507E85EB5440087332347A0)
Complete name : D:\incoming\A_Christmas_Carol_3D.mkv
Format : Matroska
File size : 1.64 GiB
Duration : 1h 35mn
Overall bit rate : 2 446 Kbps
Encoded date : UTC 2011-03-27 17:21:06
Writing application : mkvmerge v3.3.0 ('Language') built on Mar 24 2010 14:59:24
Writing library : libebml v0.8.0 + libmatroska v0.9.0

Video
ID : 1
Format : AVC
Format/Info : Advanced Video Codec
Format profile : High@L3.2
Format settings, CABAC : Yes
Format settings, ReFrames : 8 frames
Codec ID : V_MPEG4/ISO/AVC
Duration : 1h 35mn
Bit rate : 2 076 Kbps
Width : 1 024 pixels
Height : 576 pixels
Display aspect ratio : 16:9
Frame rate : 23.976 fps
Color space : YUV
Chroma subsampling : 4:2:0
Bit depth : 8 bits
Scan type : Progressive
Bits/(Pixel*Frame) : 0.147
Stream size : 1.35 GiB (82%)
Writing library : x264 core 92 r1510 33d382a
Encoding settings : cabac=1 / ref=8 / deblock=1:-1:-1 / analyse=0x3:0x133 / me=umh / subme=7 / psy=1 / psy_rd=1.00:0.10 / mixed_ref=1 / me_range=16 / chroma_me=1 / trellis=2 / 8x8dct=1 / cqm=0 / deadzone=21,11 / fast_pskip=0 / chroma_qp_offset=-3 / threads=3 / sliced_threads=0 / nr=0 / decimate=1 / interlaced=0 / constrained_intra=0 / bframes=3 / b_pyramid=2 / b_adapt=2 / b_bias=0 / direct=1 / wpredb=1 / wpredp=2 / keyint=250 / keyint_min=25 / scenecut=40 / intra_refresh=0 / rc_lookahead=50 / rc=abr / mbtree=1 / bitrate=2076 / ratetol=1.0 / qcomp=0.60 / qpmin=10 / qpmax=51 / qpstep=4 / ip_ratio=1.40 / aq=1:1.00

Audio
ID : 2
Format : AC-3
Format/Info : Audio Coding 3
Mode extension : CM (complete main)
Codec ID : A_AC3
Duration : 1h 35mn
Bit rate mode : Constant
Bit rate : 384 Kbps
Channel(s) : 6 channels
Channel positions : Front: L C R, Side: L R, LFE
Sampling rate : 48.0 KHz
Bit depth : 16 bits
Compression mode : Lossy
Stream size : 263 MiB (16%)
Правила, инструкции, FAQ!!!
Торрент  Добавлен [07 сен 2016, 17:35] Скачать торрент Магнет ссылка
Скачать торрент
[ Размер 16.83 КБ / Просмотров 3 ]

Статус
Проверен 
 
Размер  1.64 ГБ
Приватный: Нет (DHT включён)
.torrent скачан  0
Как залить торрент? | Как скачать Torrent? | Как смотреть и слушать онлайн?  
Гость
 


  • Похожие торренты
    Ответы
    Просмотры
    Последнее сообщение

Вернуться в 3D Мультфильмы

Кто сейчас на конференции

Сейчас этот форум просматривают: нет зарегистрированных пользователей и гости: 0