Самаритянин / The Samaritan (2012) HDRip

Статистика раздачи
Размер: 1.37 ГБ | Добавлен: 24 дек 2012, 09:11 | Скачали: 0
Сидеров: 0  [0 байт/сек]    Личеров: 0  [0 байт/сек]

Сообщение Гость » 24 дек 2012, 09:11

Название: Самаритянин
Оригинальное название: The Samaritan
Год выхода: 2012
Жанр: триллер
Режиссер: Дэвид Уивер
В ролях: Сэмюэл Л. Джексон, Люк Кирби, Рут Негга, Том Уилкинсон, Джил Беллоуз, Аарон Пул, Том МакКэмус, Марта Барнс, Стефен Макинтайр, Алан С. Петерсон

Описание: В центре повествования — мошенник, который отсидел за свои преступления 20 лет и решил завязать. Он встречает молодую женщину, с которой хотел бы иметь совместное будущее, а тут к нему подкатывает сын бывшего подельника, который уговаривает его на последнее дело.



Продолжительность: 01:33:09
Перевод: Авторский - А. Дольский
Субтитры: нет



Качество: HDRip
Формат: AVI
Видео кодек: XviD
Аудио кодек: AC3
Видео: XviD, 1650 Кбит/с, 720x400
Аудио Rus: AC3, 448 kb/s (6 ch)

Полное имя : D:Samarityanin.2012.P1.HDRip.1400MB.avi
Формат : AVI
Формат/Информация : Audio Video Interleave
Размер файла : 1,37 Гбайт
Продолжительность : 1 ч. 33 м.
Общий поток : 2110 Кбит/сек
Программа кодирования : VirtualDubMod 1.5.10.2 (build 2540/release)
Библиотека кодирования : VirtualDubMod build 2540/release

Видео
Идентификатор : 0
Формат : MPEG-4 Visual
Профиль формата : Advanced Simple@L5
Параметр BVOP формата : 2
Параметр QPel формата : Нет
Параметр GMC формата : Без точки перехода
Параметр матрицы формата : Default (H.263)
Режим смешивания : Сжатый битовый поток
Идентификатор кодека : XVID
Идентификатор кодека/Подсказка : XviD
Продолжительность : 1 ч. 33 м.
Битрейт : 1652 Кбит/сек
Ширина : 720 пикс.
Высота : 400 пикс.
Соотношение сторон : 16:9
Частота кадров : 24,000 кадр/сек
Частота кадров в оригинале : 23,976 кадр/сек
Цветовое пространство : YUV
Подвыборка цветности : 4:2:0
Битовая глубина : 8 бит
Тип развёртки : Прогрессивная
Метод сжатия : С потерями
Бит/(Пиксели*Кадры) : 0.239
Размер потока : 1,07 Гбайт (78%)
Библиотека кодирования : XviD 63

Аудио
Идентификатор : 1
Формат : AC-3
Формат/Информация : Audio Coding 3
Расширение режима : CM (complete main)
Идентификатор кодека : 2000
Продолжительность : 1 ч. 33 м.
Вид битрейта : Постоянный
Битрейт : 448 Кбит/сек
Каналы : 6 каналов
Расположение каналов : Front: L C R, Side: L R, LFE
Частота : 48,0 КГц
Битовая глубина : 16 бит
Метод сжатия : С потерями
Размер потока : 298 Мбайт (21%)
Выравнивание : Разделение по промежуткам
Продолжительность промежутка : 42 мс. (1,00 видеокадр)
Время предзагрузки промежутка : 500 ms



Правила, инструкции, FAQ!!!
Торрент  Добавлен [24 дек 2012, 09:11] Скачать торрент Магнет ссылка
Скачать торрент
[ Размер 14.14 КБ / Просмотров 20 ]

Статус
Проверен 
 
Размер  1.37 ГБ
Приватный: Нет (DHT включён)
.torrent скачан  0
Как залить торрент? | Как скачать Torrent? | Как смотреть и слушать онлайн?  
Гость
 


  • Похожие торренты
    Ответы
    Просмотры
    Последнее сообщение

Вернуться в Триллеры

Кто сейчас на конференции

Сейчас этот форум просматривают: нет зарегистрированных пользователей и гости: 0