Щепка женится / Knerten gifter seg (Мартин Лунд / Martin Lund) [2010, Норвегия, детский, семейный, комедия, DVDRip] VO (Вячеслав Прошин) + original nor

Статистика раздачи
Размер: 1.65 ГБ | Добавлен: 13 фев 2014, 11:38 | Скачали: 0
Сидеров: 0  [0 байт/сек]    Личеров: 0  [0 байт/сек]

Сообщение Гость » 13 фев 2014, 11:38

Щепка женится / Knerten gifter seg

Страна: Норвегия
Жанр: детский, семейный, комедия
Год выпуска: 2010
Продолжительность: 01:18:33

Перевод: Любительский (одноголосый закадровый) Вячеслав Прошин
Cубтитры: нет
Оригинальная аудиодорожка: норвежский

Режиссер: Мартин Лунд / Martin Lund

В ролях: Адриан Грённевик Смит, Эслейк Энгмарк, Пернилла Сёренсен, Самсайя, Петрус Кристенсен, Ян Гуннар Рёйзе и др.

Описание: Когда мама Малыша попадает в загадочную аварию на велосипеде, Малыш и Щепка перевернут город вверх тормашками, чтобы найти виновного в этом. А по ходу дела Щепка найдет себе невесту...
Продолжение фильма "Щепка" (2009)
Релиз: Кинопортал Близзард

Перевод: Дмитрий Александрович aka kitmur
Озвучание: Вячеслав Прошин
Сэмпл: http://multi-up.com/472838

Качество видео: DVDRip
Формат видео: AVI

Видео: Xvid 720x304 25.00fps 2095Kbps
Аудио 1: Dolby AC3 48000Hz 6ch 448kbps (русский)
Аудио 2: Dolby AC3 48000Hz 6ch 448kbps (норвежский)
MediaInfo
General
Complete name : I:\Щепка женится\Knerten.Gifter.Seg.rus.nor.avi
Format : AVI
Format/Info : Audio Video Interleave
File size : 1.65 GiB
Duration : 1h 18mn
Overall bit rate : 3 005 Kbps
Writing application : VirtualDubModRus 1.5.10.2 (build 2540/release)
Writing library : VirtualDubMod build 2540/release

Video
ID : 0
Format : MPEG-4 Visual
Format profile : Advanced Simple@L5
Format settings, BVOP : Yes
Format settings, QPel : No
Format settings, GMC : No warppoints
Format settings, Matrix : Default (MPEG)
Codec ID : XVID
Codec ID/Hint : XviD
Duration : 1h 18mn
Bit rate : 2 095 Kbps
Width : 720 pixels
Height : 304 pixels
Display aspect ratio : 2.35:1
Frame rate : 25.000 fps
Color space : YUV
Chroma subsampling : 4:2:0
Bit depth : 8 bits
Scan type : Progressive
Bits/(Pixel*Frame) : 0.383
Stream size : 1.15 GiB (70%)
Writing library : XviD 1.2.1 (UTC 2008-12-04)

Audio #1
ID : 1
Format : AC-3
Format/Info : Audio Coding 3
Mode extension : CM (complete main)
Codec ID : 2000
Duration : 1h 18mn
Bit rate mode : Constant
Bit rate : 448 Kbps
Channel(s) : 6 channels
Channel positions : Front: L C R, Side: L R, LFE
Sampling rate : 48.0 KHz
Stream size : 252 MiB (15%)
Alignment : Split accross interleaves
Interleave, duration : 40 ms (1.00 video frame)
Interleave, preload duration : 500 ms

Audio #2
ID : 2
Format : AC-3
Format/Info : Audio Coding 3
Mode extension : CM (complete main)
Codec ID : 2000
Duration : 1h 18mn
Bit rate mode : Constant
Bit rate : 448 Kbps
Channel(s) : 6 channels
Channel positions : Front: L C R, Side: L R, LFE
Sampling rate : 48.0 KHz
Video delay : 6ms
Stream size : 252 MiB (15%)
Alignment : Split accross interleaves
Interleave, duration : 40 ms (1.00 video frame)
Interleave, preload duration : 500 ms
Скриншот c названием фильма
Скриншоты
Правила, инструкции, FAQ!!!
Торрент  Добавлен [13 фев 2014, 11:38] Скачать торрент Магнет ссылка
Скачать торрент
[ Размер 16.99 КБ / Просмотров 9 ]

Статус
Проверен 
 
Размер  1.65 ГБ
Приватный: Нет (DHT включён)
.torrent скачан  0
Как залить торрент? | Как скачать Torrent? | Как смотреть и слушать онлайн?  
Гость
 


  • Похожие торренты
    Ответы
    Просмотры
    Последнее сообщение

Вернуться в Детское, Семейное кино

Кто сейчас на конференции

Сейчас этот форум просматривают: нет зарегистрированных пользователей и гости: 0