Синбад и Глаз Тигра / Sinbad and the Eye of the Tiger (1977) DVDRip

Статистика раздачи
Размер: 1.45 ГБ | Добавлен: 03 ноя 2013, 23:55 | Скачали: 1
Сидеров: 1  [0 байт/сек]    Личеров: 0  [0 байт/сек]

Сообщение Гость » 03 ноя 2013, 23:55

Синбад и Глаз Тигра / Sinbad and the Eye of the Tiger (1977) DVDRip

Год выпуска: 1977
Жанр: Семейный, Фэнтези, Приключения

Описание фильма:
Синбад держит путь в землю Чарок для того, чтобы просить руки принцессы Фары у её брата принца Кассима. Однако, приплыв туда, он узнаёт, что волшебница Зенобия наложила на Кассима проклятие, превратив его в бабуина.
Королева Зенобия сделала это, для того, чтобы калифом смог стать её сын принц Рафи. Синбад решает восстановить справедливость и вступает в схватку с волшебницей, то и дело принимающей облик дикой тигрицы.

Режиссер: Сэм Уонамейкер
Актеры: Патрик Вейн, Джейн Сеймур, Тэрин Пауэр, Маргарет Уайтинг, Патрик Тротон, Курт Кристиан, Дэмиен Томас, Бернард Кэй.

Продолжительность: 01:52:59
Качество видео: DVDRip
Перевод: Многоголосый закадровый



Дата мировой премьеры: 15.07.77

Видеокодек: Xvid
Битрейт видео: ~1641 Кбит/сек
Размер кадра: 720x400
Аудиокодек: AC3 2.0
Битрейт аудио: 192 Кбит/сек
Общее
Полное имя : E:\Интересно\!Детские\Синбад и Глаз Тигра 1977\Синбад и Глаз Тигра (1977) DVDRip.avi
Формат : AVI
Формат/Информация : Audio Video Interleave
Размер файла : 1,45 Гбайт
Продолжительность : 1 ч. 52 м.
Общий поток : 1842 Кбит/сек
Название фильма : Синбад и Глаз Тигра / Sinbad and the Eye of the Tiger (1977) DVDRip
Режиссёр : Flynn82
Жанр : фэнтези, боевик, приключения
Программа кодирования : VirtualDubMod 1.5.10.2 (build 2542/release)
Примечание : 06.12.2012

Видео
Идентификатор : 0
Формат : MPEG-4 Visual
Профиль формата : Advanced Simple@L5
Параметр BVOP формата : 1
Параметр QPel формата : Нет
Параметр GMC формата : Без точки перехода
Параметр матрицы формата : Выборочная
Идентификатор кодека : XVID
Идентификатор кодека/Подсказка : XviD
Продолжительность : 1 ч. 52 м.
Битрейт : 1641 Кбит/сек
Ширина : 720 пикселей
Высота : 400 пикселей
Соотношение сторон : 16:9
Частота кадров : 23,976 кадра/сек
Цветовое пространство : YUV
Субдискретизация насыщенности : 4:2:0
Битовая глубина : 8 бит
Тип развёртки : Прогрессивная
Метод сжатия : С потерями
Бит/(Пиксели*Кадры) : 0.238
Размер потока : 1,29 Гбайт (89%)
Библиотека кодирования : XviD 65

Аудио
Идентификатор : 1
Формат : AC-3
Формат/Информация : Audio Coding 3
Расширение режима : CM (complete main)
Параметр Endianness формата : Big
Идентификатор кодека : 2000
Продолжительность : 1 ч. 52 м.
Вид битрейта : Постоянный
Битрейт : 192 Кбит/сек
Каналы : 2 канала
Расположение каналов : Front: L R
Частота : 48,0 КГц
Битовая глубина : 16 бит
Метод сжатия : С потерями
Размер потока : 155 Мбайт (10%)
Выравнивание : Разделение по промежуткам
Продолжительность промежутка : 42 мс. (1,00 видеокадр)
Время предзагрузки промежутка : 500 мс.
Скриншоты:


Правила, инструкции, FAQ!!!
Торрент  Добавлен [03 ноя 2013, 23:55] Скачать торрент Магнет ссылка
Скачать торрент
[ Размер 15.39 КБ / Просмотров 14 ]

Статус
Проверен 
 
Размер  1.45 ГБ
Приватный: Нет (DHT включён)
.torrent скачан  1
Как залить торрент? | Как скачать Torrent? | Как смотреть и слушать онлайн?  
Гость
 


  • Похожие торренты
    Ответы
    Просмотры
    Последнее сообщение

Вернуться в Детское, Семейное кино

Кто сейчас на конференции

Сейчас этот форум просматривают: нет зарегистрированных пользователей и гости: 1