Синий тигр / Modry tygr (2012) HDRip

Статистика раздачи
Размер: 1.37 ГБ | Добавлен: 09 авг 2014, 21:28 | Скачали: 0
Сидеров: 0  [0 байт/сек]    Личеров: 4  [0 байт/сек]

Сообщение Гость » 09 авг 2014, 21:28

Год выпуска: 2012
Производство: Чехия
Жанр: Семейный

Описание фильма:
Девочка и мальчик противостоят попыткам амбициозного главы местной администрации снести ботанический сад, в котором они живут вместе с родителями, чтобы построить на его месте современный квартал. Их шансы близки к нулю, но случается чудо, и к ним на помощь неожиданно приходит синий тигрёнок…

Режиссер: Петр Оукропец, Богдан Слама
Продюсер: Милан Кухинка, Павел Стрнад, Майке Мартенс
Актеры: Линда Вотрубова, Ян Гартль, Даниэль Древес, Либуше Гавелкова, Барбара Хрзанова, лукас Сталковски, Якуб Вунш

Продолжительность: 01:31:09
Качество видео: HDRip
Перевод: Двуголосый закадровый (Нтв+)
Язык субтитров: Отсутствуют



Дата мировой премьеры: 23 февраля 2012

Видеокодек: Xvid
Битрейт видео: ~1944 Kbit/s
Размер кадра: 720 x 384
Аудиокодек: AC3 2.0
Битрейт аудио: 192 Kbit/s
Общее
Полное имя : D:\Торренты\РЕЛИЗЫ\Синий тигр.2012.HDRip.avi
Формат : AVI
Формат/Информация : Audio Video Interleave
Размер файла : 1,37 Гбайт
Продолжительность : 1 ч. 31 м.
Общий поток : 2146 Кбит/сек
Программа кодирования : VirtualDubMod 1.5.10.2 (build 2540/release)
Библиотека кодирования : VirtualDubMod build 2540/release

Видео
Идентификатор : 0
Формат : MPEG-4 Visual
Профиль формата : Advanced Simple@L5
Параметр BVOP формата : 2
Параметр QPel формата : Нет
Параметр GMC формата : Без точки перехода
Параметр матрицы формата : Default (MPEG)
Идентификатор кодека : XVID
Идентификатор кодека/Подсказка : XviD
Продолжительность : 1 ч. 31 м.
Битрейт : 1944 Кбит/сек
Ширина : 720 пикс.
Высота : 384 пикс.
Соотношение сторон : 1,875
Частота кадров : 24,000 кадр/сек
Цветовое пространство : YUV
Подвыборка цветности : 4:2:0
Битовая глубина : 8 бит
Тип развёртки : Прогрессивная
Метод сжатия : С потерями
Бит/(Пиксели*Кадры) : 0.293
Размер потока : 1,24 Гбайт (91%)
Библиотека кодирования : XviD 1.2.1 (UTC 2008-12-04)

Аудио
Идентификатор : 1
Формат : AC-3
Формат/Информация : Audio Coding 3
Расширение режима : CM (complete main)
Идентификатор кодека : 2000
Продолжительность : 1 ч. 31 м.
Вид битрейта : Постоянный
Битрейт : 192 Кбит/сек
Каналы : 2 канала
Расположение каналов : Front: L R
Частота : 48,0 КГц
Битовая глубина : 16 бит
Метод сжатия : С потерями
Размер потока : 125 Мбайт (9%)
Выравнивание : Разделение по промежуткам
Продолжительность промежутка : 42 мс. (1,00 видеокадр)
Время предзагрузки промежутка : 500 ms

Скриншоты:

Правила, инструкции, FAQ!!!
Торрент  Добавлен [09 авг 2014, 21:28] Скачать торрент Магнет ссылка
Скачать торрент
[ Размер 14.45 КБ / Просмотров 6 ]

Статус
Проверен 
 
Размер  1.37 ГБ
Приватный: Нет (DHT включён)
.torrent скачан  0
Как залить торрент? | Как скачать Torrent? | Как смотреть и слушать онлайн?  
Гость
 


  • Похожие торренты
    Ответы
    Просмотры
    Последнее сообщение

Вернуться в Детское, Семейное кино

Кто сейчас на конференции

Сейчас этот форум просматривают: нет зарегистрированных пользователей и гости: 0