Сказки на ночь / Bedtime Stories (Адам Шенкман / Adam Shankman) [2008, США, фэнтези, комедия, семейный, HDRip] MVO

Статистика раздачи
Размер: 704.33 МБ | Добавлен: 06 фев 2014, 11:44 | Скачали: 0
Сидеров: 0  [0 байт/сек]    Личеров: 0  [0 байт/сек]

Сообщение Гость » 06 фев 2014, 11:44

Страна: США
Жанр: фэнтези, комедия, семейный
Год выпуска: 2008
Продолжительность: 01:39:13
Перевод: Профессиональный (многоголосый закадровый)
Cубтитры: нет
Режиссер: Адам Шенкман / Adam Shankman




В ролях: Адам Сэндлер, Кери Рассел, Гай Пирс, Расселл Брэнд, Ричард Гриффитс, Тереза Палмер, Люси Лоулесс, Кортни Кокс, Джонатан Морган Хейт, Лаура Энн Кеслинг, Джонатан Прайс, Ник Свардсон...

Описание: В жизни главного героя Скитера Бронсона никогда не случалось ничего удивительного. Но однажды сестра попросила его присмотреть за двумя очаровательными и неугомонными племянниками и одной симпатичной морской свинкой по имени Плаксик.

Все трое привыкли засыпать под мамины сказки, и Скитеру пришлось каждый вечер придумывать невероятные истории для своей веселой семейки. И вдруг происходит чудо: события сказки, рассказанной детям на ночь, начали сбываться на следующий день в жизни самого Скитера!




Качество видео: HDRip (исходник не известен)
Формат видео: AVI
Видео: Xvid 720x304 23.98fps 855Kbps
Аудио: MPEG Audio Layer 3 48000Hz stereo 128Kbps
Сэмпл: http://multi-up.com/477755




MediaInfo
Формат : AVI
Формат/Информация : Audio Video Interleave
Размер файла : 704 Мбайт
Продолжительность : 1 ч. 39 м.
Общий поток : 992 Кбит/сек
Программа кодирования : VirtualDubMod 1.5.10.2 (build 2540/release)
Библиотека кодирования : VirtualDubMod build 2540/release

Видео
Идентификатор : 0
Формат : MPEG-4 Visual
Профиль формата : Advanced Simple@L5
Параметр BVOP формата : 1
Параметр QPel формата : Нет
Параметр GMC формата : Без точки перехода
Параметр матрицы формата : Default (MPEG)
Идентификатор кодека : XVID
Идентификатор кодека/Подсказка : XviD
Продолжительность : 1 ч. 39 м.
Битрейт : 855 Кбит/сек
Ширина : 720 пикс.
Высота : 304 пикс.
Соотношение сторон : 2,35:1
Частота кадров : 23,976 кадр/сек
Цветовое пространство : YUV
Подвыборка цветности : 4:2:0
Битовая глубина : 8 бит
Тип развёртки : Прогрессивная
Метод сжатия : С потерями
Бит/(Пиксели*Кадры) : 0.163
Размер потока : 607 Мбайт (86%)
Библиотека кодирования : XviD 1.2.1 (UTC 2008-12-04)

Аудио
Идентификатор : 1
Формат : MPEG Audio
Версия формата : Version 1
Профиль формата : Layer 3
Идентификатор кодека : 55
Идентификатор кодека/Подсказка : MP3
Продолжительность : 1 ч. 39 м.
Вид битрейта : Постоянный
Битрейт : 128 Кбит/сек
Канал(ы) : 2 канала(ов)
Частота : 48,0 КГц
Метод сжатия : С потерями
Размер потока : 90,8 Мбайт (13%)
Выравнивание : Соединение по промежуткам
Продолжительность промежутка : 42 мс. (1,00 видеокадр)
Время предзагрузки промежутка : 504 ms
Библиотека кодирования : LAME3.98r
Настройки программы : -m s -V 4 -q 2 -lowpass 17 -b 128
Скриншоты
Правила, инструкции, FAQ!!!
Торрент  Добавлен [06 фев 2014, 11:44] Скачать торрент Магнет ссылка
Скачать торрент
[ Размер 14.24 КБ / Просмотров 10 ]

Статус
Проверен 
 
Размер  704.33 МБ
Приватный: Нет (DHT включён)
.torrent скачан  0
Как залить торрент? | Как скачать Torrent? | Как смотреть и слушать онлайн?  
Гость
 


  • Похожие торренты
    Ответы
    Просмотры
    Последнее сообщение

Вернуться в Детское, Семейное кино

Кто сейчас на конференции

Сейчас этот форум просматривают: нет зарегистрированных пользователей и гости: 1