Спайдервик: Хроники / The Spiderwick Chronicles (2008) BDRip | D, P, A

Статистика раздачи
Размер: 2.57 ГБ | Добавлен: 23 окт 2013, 20:13 | Скачали: 2
Сидеров: 3  [0 байт/сек]    Личеров: 1  [0 байт/сек]

Сообщение Гость » 23 окт 2013, 20:13

Название: Спайдервик: Хроники
Оригинальное название: The Spiderwick Chronicles
Год выпуска: 2008
Жанр: Фэнтези, семейный, приключения
Выпущено: США, Paramount
Режиссер: Марк С. Уотерс
В ролях: Фредди Хаймор, Сара Болджер, Ник Нолти, Мэри-Луиз Паркер, Джоан Плоурайт, Дэвид Стрэтэйрн, Сет Роген, Джорди Бенаттар

О фильме: Когда семейство Грейс переезжает в старый дом, стоящий на окраине, там начинают твориться странные вещи. Пытаясь понять в чём дело, Джаред обнаруживает дневник Артура Спайдервика и открывает невероятную правду о поместье: здесь находится скрытая от глаз таинственная страна, населённая фантастическими созданиями! Стремясь защитить свой секрет, Джаред, его сестра и брат-близнец переживают незабываемые приключения.

Качество: BDRip
Продолжительность: 01:35:46

Видео: XviD, 1583 Кбит/с, 720x304
Аудио 1: русский, 48 kHz, AC3, 6 ch, 448 kbps avg, [Дублированный]
Аудио 2: русский, 48 kHz, AC3, 6 ch, 448 kbps avg, [Профессиональный многоголосый, Lost Film]
Аудио 3: русский, 48 kHz, AC3, 6 ch, 448 kbps avg, [Авторский, Юрий Немахов]

Внешние файлы
Аудио: украинский, 48 kHz, AC3, 6 ch, 448 kbps avg, [Дублированный]
Аудио: английский, 48 kHz, AC3, 6 ch, 448 kbps avg, [Оригинал]
Субтитры: русские
Субтитры: украинские
Субтитры: английские



Сатурн, 2009 год
Номинации (2):
Лучший фэнтези-фильм
Лучший молодой актер/актриса (Фредди Хаймор)
Общее
Полное имя : E:VideoSpajdervik.2008.XviD.BDRipSpajdervik.2008.DUB.ukr.ac3
Формат : AC-3
Формат/Информация : Audio Coding 3
Размер файла : 307 Мбайт
Продолжительность : 1 ч. 35 м.
Режим общего битрейта : Постоянный
Общий поток : 448 Кбит/сек

Аудио
Формат : AC-3
Формат/Информация : Audio Coding 3
Расширение режима : CM (complete main)
Параметр Endianness формата : Big
Продолжительность : 1 ч. 35 м.
Вид битрейта : Постоянный
Битрейт : 448 Кбит/сек
Каналы : 6 каналов
Расположение каналов : Front: L C R, Side: L R, LFE
Частота : 48,0 КГц
Битовая глубина : 16 бит
Метод сжатия : С потерями
Размер потока : 307 Мбайт (100%)

Общее
Полное имя : E:VideoSpajdervik.2008.XviD.BDRipSpajdervik.2008.eng.srt
Формат : SubRip
Размер файла : 75,9 Кбайт

Текст
Формат : SubRip
Метод сжатия : Без потерь

Общее
Полное имя : E:VideoSpajdervik.2008.XviD.BDRipSpajdervik.2008.Original.eng.ac3
Формат : AC-3
Формат/Информация : Audio Coding 3
Размер файла : 307 Мбайт
Продолжительность : 1 ч. 35 м.
Режим общего битрейта : Постоянный
Общий поток : 448 Кбит/сек

Аудио
Формат : AC-3
Формат/Информация : Audio Coding 3
Расширение режима : CM (complete main)
Параметр Endianness формата : Big
Продолжительность : 1 ч. 35 м.
Вид битрейта : Постоянный
Битрейт : 448 Кбит/сек
Каналы : 6 каналов
Расположение каналов : Front: L C R, Side: L R, LFE
Частота : 48,0 КГц
Битовая глубина : 16 бит
Метод сжатия : С потерями
Размер потока : 307 Мбайт (100%)

Общее
Полное имя : E:VideoSpajdervik.2008.XviD.BDRipSpajdervik.2008.rus.srt
Формат : SubRip
Размер файла : 102 Кбайт

Текст
Формат : SubRip
Метод сжатия : Без потерь

Общее
Полное имя : E:VideoSpajdervik.2008.XviD.BDRipSpajdervik.2008.XviD.BDRip.avi
Формат : AVI
Формат/Информация : Audio Video Interleave
Размер файла : 1,97 Гбайт
Продолжительность : 1 ч. 35 м.
Общий поток : 2945 Кбит/сек
Программа кодирования : VirtualDubMod 1.5.10.2 (build 2540/release)
Библиотека кодирования : VirtualDubMod build 2540/release

Видео
Идентификатор : 0
Формат : MPEG-4 Visual
Профиль формата : Advanced Simple@L5
Параметр BVOP формата : 1
Параметр QPel формата : Нет
Параметр GMC формата : Без точки перехода
Параметр матрицы формата : Default (H.263)
Режим смешивания : Сжатый битовый поток
Идентификатор кодека : XVID
Идентификатор кодека/Подсказка : XviD
Продолжительность : 1 ч. 35 м.
Битрейт : 1583 Кбит/сек
Ширина : 720 пикселей
Высота : 304 пикселя
Соотношение сторон : 2,35:1
Частота кадров : 23,976 кадра/сек
Цветовое пространство : YUV
Субдискретизация насыщенности : 4:2:0
Битовая глубина : 8 бит
Тип развёртки : Прогрессивная
Метод сжатия : С потерями
Бит/(Пиксели*Кадры) : 0.302
Размер потока : 1,06 Гбайт (54%)
Библиотека кодирования : XviD 1.2.1 (UTC 2008-12-04)

Аудио #1
Идентификатор : 1
Формат : AC-3
Формат/Информация : Audio Coding 3
Расширение режима : CM (complete main)
Параметр Endianness формата : Big
Идентификатор кодека : 2000
Продолжительность : 1 ч. 35 м.
Вид битрейта : Постоянный
Битрейт : 448 Кбит/сек
Каналы : 6 каналов
Расположение каналов : Front: L C R, Side: L R, LFE
Частота : 48,0 КГц
Битовая глубина : 16 бит
Метод сжатия : С потерями
Размер потока : 307 Мбайт (15%)
Выравнивание : Разделение по промежуткам
Продолжительность промежутка : 42 мс. (1,00 видеокадр)
Время предзагрузки промежутка : 500 мс.

Аудио #2
Идентификатор : 2
Формат : AC-3
Формат/Информация : Audio Coding 3
Расширение режима : CM (complete main)
Параметр Endianness формата : Big
Идентификатор кодека : 2000
Продолжительность : 1 ч. 35 м.
Вид битрейта : Постоянный
Битрейт : 448 Кбит/сек
Каналы : 6 каналов
Расположение каналов : Front: L C R, Side: L R, LFE
Частота : 48,0 КГц
Битовая глубина : 16 бит
Метод сжатия : С потерями
Размер потока : 307 Мбайт (15%)
Выравнивание : Разделение по промежуткам
Продолжительность промежутка : 42 мс. (1,00 видеокадр)
Время предзагрузки промежутка : 500 мс.

Аудио #3
Идентификатор : 3
Формат : AC-3
Формат/Информация : Audio Coding 3
Расширение режима : CM (complete main)
Параметр Endianness формата : Big
Идентификатор кодека : 2000
Продолжительность : 1 ч. 35 м.
Вид битрейта : Постоянный
Битрейт : 448 Кбит/сек
Каналы : 6 каналов
Расположение каналов : Front: L C R, Side: L R, LFE
Частота : 48,0 КГц
Битовая глубина : 16 бит
Метод сжатия : С потерями
Размер потока : 307 Мбайт (15%)
Выравнивание : Разделение по промежуткам
Продолжительность промежутка : 42 мс. (1,00 видеокадр)
Время предзагрузки промежутка : 500 мс.

Общее
Полное имя : E:VideoSpajdervik.2008.XviD.BDRipSpajderviki.2008.ukr.srt
Формат : SubRip
Размер файла : 104 Кбайт

Текст
Формат : SubRip
Метод сжатия : Без потерь


Правила, инструкции, FAQ!!!
Торрент  Добавлен [23 окт 2013, 20:13] Скачать торрент Магнет ссылка
Скачать торрент
[ Размер 13.58 КБ / Просмотров 7 ]

Статус
Проверен 
 
Размер  2.57 ГБ
Приватный: Нет (DHT включён)
.torrent скачан  2
Как залить торрент? | Как скачать Torrent? | Как смотреть и слушать онлайн?  
Гость
 


  • Похожие торренты
    Ответы
    Просмотры
    Последнее сообщение

Вернуться в Детское, Семейное кино

Кто сейчас на конференции

Сейчас этот форум просматривают: нет зарегистрированных пользователей и гости: 0