Тайное дитя / Tyskungen (2013) HDRip | L2

Статистика раздачи
Размер: 1.46 ГБ | Добавлен: 25 окт 2013, 15:05 | Скачали: 0
Сидеров: 0  [0 байт/сек]    Личеров: 0  [0 байт/сек]

Сообщение Гость » 25 окт 2013, 15:05

Название: Тайное дитя
Оригинальное название: Tyskungen
Год выхода: 2013
Жанр: Триллер, Криминал, Детектив
Режиссер: Пер Ханефьорд

В ролях: Клаудия Галли, Рихард Ульфсетер, Эва Фритьофсон, Памела Кортес Бруна, Леннарт Йенкель, Амалия Хольм Бьельке, Фэнни Клефельт, Эдвин Эндре, Аксель Мюрберг, Ким Сольфельдт

О фильме:
Экранизация книги Камиллы Лекберг. Живописный рыбацкий городок Фьелльбакка на побережье Атлантики выглядит как ожившая туристическая открытка. Именно сюда возвращается автор детективов Эрика, мечтая предаться счастливой семейной жизни и творчеству. Но тихая провинциальная жизнь таит немало секретов. И однажды вековой покой Фьелльбакки взрывается новостью о жестоком убийстве…


Страна: Швеция
Студия: Tre Vänner Produktion AB
Продолжительность: 01:45:03
Перевод: Любительский (двуголосый закадровый)
Озвучка / Автор перевода: Максим Максимов, "С Причудами"


Кодек: AVI
Качество: HDRip | L2
Видео: 720x304, ~1528 Kbit/s, 24 fps
Звук: AC3 5.1~448 Kbit/s
Субтитры: Отсутствуют

Семпл

Общее
Полное имя : D:ТоррентыТайное дитя.2013.HDRip.avi
Формат : AVI
Формат/Информация : Audio Video Interleave
Размер файла : 1,46 Гбайт
Продолжительность : 1 ч. 45 м.
Общий поток : 1986 Кбит/сек
Программа кодирования : VirtualDubMod 1.5.10.2 (build 2542/release)
Библиотека кодирования : VirtualDubMod build 2542/release

Видео
Идентификатор : 0
Формат : MPEG-4 Visual
Профиль формата : Advanced Simple@L5
Параметр BVOP формата : 1
Параметр QPel формата : Нет
Параметр GMC формата : Без точки перехода
Параметр матрицы формата : Default (H.263)
Идентификатор кодека : XVID
Идентификатор кодека/Подсказка : XviD
Продолжительность : 1 ч. 45 м.
Битрейт : 1528 Кбит/сек
Ширина : 720 пикс.
Высота : 304 пикс.
Соотношение сторон : 2,35:1
Частота кадров : 24,000 кадр/сек
Цветовое пространство : YUV
Подвыборка цветности : 4:2:0
Битовая глубина : 8 бит
Тип развёртки : Прогрессивная
Метод сжатия : С потерями
Бит/(Пиксели*Кадры) : 0.291
Размер потока : 1,12 Гбайт (77%)
Библиотека кодирования : XviD 1.2.1 (UTC 2008-12-04)

Аудио
Идентификатор : 1
Формат : AC-3
Формат/Информация : Audio Coding 3
Расширение режима : CM (complete main)
Идентификатор кодека : 2000
Продолжительность : 1 ч. 45 м.
Вид битрейта : Постоянный
Битрейт : 448 Кбит/сек
Каналы : 6 каналов
Расположение каналов : Front: L C R, Side: L R, LFE
Частота : 48,0 КГц
Битовая глубина : 16 бит
Метод сжатия : С потерями
Размер потока : 337 Мбайт (23%)
Выравнивание : Разделение по промежуткам
Продолжительность промежутка : 42 мс. (1,00 видеокадр)
Время предзагрузки промежутка : 500 ms


Правила, инструкции, FAQ!!!
Торрент  Добавлен [25 окт 2013, 15:05] Скачать торрент Магнет ссылка
Скачать торрент
[ Размер 15.37 КБ / Просмотров 5 ]

Статус
Проверен 
 
Размер  1.46 ГБ
Приватный: Нет (DHT включён)
.torrent скачан  0
Как залить торрент? | Как скачать Torrent? | Как смотреть и слушать онлайн?  
Гость
 


  • Похожие торренты
    Ответы
    Просмотры
    Последнее сообщение

Вернуться в Триллеры

Кто сейчас на конференции

Сейчас этот форум просматривают: нет зарегистрированных пользователей и гости: 0