Темная сила / Dark Power (2013) DVDRip

Статистика раздачи
Размер: 1.36 ГБ | Добавлен: 09 ноя 2013, 18:20 | Скачали: 1
Сидеров: 0  [0 байт/сек]    Личеров: 0  [0 байт/сек]

Сообщение Гость » 09 ноя 2013, 18:20

Темная сила / Dark Power (2013) DVDRip



Год выпуска: 2013
Производство: США, CineVia, 7 Continents Films, Reinnassant
Жанр: Триллер
Перевод: Многоголосый закадровый, профессиональный (НТВ+)
Субтитры: Отсутствуют

Дата мировой премьеры: 9 июля 2013

Режиссер: Джон Милтон Брэнтон
Продюсер: Ирмгаард Паган, Мигель Паган, Кристиан Луна
Актеры: Шон Патрик Флэнери, Кристанна Локен, Крис Кармак, Ричард Глисон, Джеймс С. Бёрнс, Кевин Добсон, Ким Джексон, Сьюэлл Уитни, Эндрю Джеймс Аллен, Роберт Т. Баррет

Описание фильма:
Во время избирательной компании совершается дерзкое убийство действующего мэра. Подозревая, что местные власти могут быть слишком коррумпированы ФБР подключает к расследованию двух своих агентов: циничного Джона Арчера и настырную Милу Драйвер. Очень скоро этим двоим удается обнаружить, что дело намного сложнее, чем предполагалось. Агенты оказываются вовлечены в большую игру. Теперь они должны не только раскрыть дело, следы которого ведут к одной очень влиятельной преступной группировке, но и сохранить свои жизни, поскольку на них уже началась охота.



Продолжительность: 01:39:00
Качество видео: DVDRip

Видеокодек: Xvid
Битрейт видео: ~1768 Kbit/s
Размер кадра: 720 x 400
Аудиокодек: AC3 2.0
Битрейт аудио: 192 Kbit/s
Общее
Полное имя : D:\Торренты\Темная сила.2013.DVDRip.avi
Формат : AVI
Формат/Информация : Audio Video Interleave
Размер файла : 1,36 Гбайт
Продолжительность : 1 ч. 39 м.
Общий поток : 1970 Кбит/сек
Программа кодирования : VirtualDubMod 1.5.10.2 (build 2540/release)
Библиотека кодирования : VirtualDubMod build 2540/release

Видео
Идентификатор : 0
Формат : MPEG-4 Visual
Профиль формата : Advanced Simple@L5
Параметр BVOP формата : 2
Параметр QPel формата : Нет
Параметр GMC формата : Без точки перехода
Параметр матрицы формата : Default (MPEG)
Идентификатор кодека : XVID
Идентификатор кодека/Подсказка : XviD
Продолжительность : 1 ч. 39 м.
Битрейт : 1768 Кбит/сек
Ширина : 720 пикс.
Высота : 400 пикс.
Соотношение сторон : 16:9
Частота кадров : 23,976 кадр/сек
Цветовое пространство : YUV
Подвыборка цветности : 4:2:0
Битовая глубина : 8 бит
Тип развёртки : Прогрессивная
Метод сжатия : С потерями
Бит/(Пиксели*Кадры) : 0.256
Размер потока : 1,22 Гбайт (90%)
Библиотека кодирования : XviD 1.2.1 (UTC 2008-12-04)

Аудио
Идентификатор : 1
Формат : AC-3
Формат/Информация : Audio Coding 3
Расширение режима : CM (complete main)
Идентификатор кодека : 2000
Продолжительность : 1 ч. 38 м.
Вид битрейта : Постоянный
Битрейт : 192 Кбит/сек
Каналы : 2 канала
Расположение каналов : Front: L R
Частота : 48,0 КГц
Битовая глубина : 16 бит
Метод сжатия : С потерями
Размер потока : 136 Мбайт (10%)
Выравнивание : Разделение по промежуткам
Продолжительность промежутка : 42 мс. (1,00 видеокадр)
Время предзагрузки промежутка : 500 ms

Скриншоты:

Правила, инструкции, FAQ!!!
Торрент  Добавлен [09 ноя 2013, 18:20] Скачать торрент Магнет ссылка
Скачать торрент
[ Размер 14.42 КБ / Просмотров 5 ]

Статус
Проверен 
 
Размер  1.36 ГБ
Приватный: Нет (DHT включён)
.torrent скачан  1
Как залить торрент? | Как скачать Torrent? | Как смотреть и слушать онлайн?  
Гость
 


  • Похожие торренты
    Ответы
    Просмотры
    Последнее сообщение

Вернуться в Триллеры

Кто сейчас на конференции

Сейчас этот форум просматривают: нет зарегистрированных пользователей и гости: 0