Убей меня нежно / Killing Me Softly (2002) BDRip

Статистика раздачи
Размер: 2.05 ГБ | Добавлен: 12 сен 2013, 20:06 | Скачали: 0
Сидеров: 0  [0 байт/сек]    Личеров: 0  [0 байт/сек]

Сообщение Гость » 12 сен 2013, 20:06

Название: Убей меня нежно
Оригинальное название: Killing Me Softly
Год выхода: 2002
Жанр: триллер, драма, мелодрама, детектив
Режиссер: Чэнь Кайгэ

В ролях: Хэзер Грэм, Джозеф Файнс, Наташа МакЭлхоун, Ульрих Томсен, Иэн Харт, Джейсон Хьюз, Кика Маркам, Эми Роббинс, Ясмин Баннерман, Ребекка Р. Палмер...

О фильме:Роковая встреча с неотразимым и загадочным парнем изменила размеренную жизнь Элис. Расставшись с надежным другом, она бросается в объятия Адама, понимая, что нашла вторую половину. И лишь после свадьбы, она осознает, что ничего не знает о супруге.

Вскоре анонимные письма с угрозами, таинственная запертая кладовая и странное поведение мужа заставляют Элис заглянуть в его прошлое. С этого момента ее жизнь превращается в кошмар, где пугающие совпадения и шокирующие открытия говорят лишь об одном: ее муж на самом деле хладнокровный убийца-маньяк.



Страна: США, Великобритания
Продолжительность: 01:40:24
Перевод: Профессиональный (двухголосый закадровый), Профессиональный (двухголосый закадровый, Украинский), Оригинал (Английский)

Файл
Кодек: XviD
Качество: BDRip (источник: hdclub / Diablo / BDRemux / 1080p)
Видео: 720x384 (1.88:1), 23.976 fps, 1886 kbps, 0.284 bit/pixel
Аудио #1: 48 kHz, AC3 Dolby Digital, 3/2 (L,C,R,l,r) + LFE ch, ~448.00 kbps (Русский)
Аудио #2: 48 kHz, AC3 Dolby Digital, 2/0 (L,R) ch, ~192.00 kbps (Украинский)
Аудио #3: 48 kHz, AC3 Dolby Digital, 3/2 (L,C,R,l,r) + LFE ch, ~384.00 kbps (Английский)
Субтитры: Русские, Английские (внешние)

&

Общее
Полное имя : D:TorrentKilling Me Softly.2002.BDRipKilling Me Softly.2002.BDRip.avi
Формат : AVI
Формат/Информация : Audio Video Interleave
Профиль формата : OpenDML
Настройки формата : rec
Размер файла : 2,05 Гбайт
Продолжительность : 1 ч. 40 м.
Общий поток : 2919 Кбит/сек
Название фильма : Killing Me Softly.2002.BDRip rip by Rulya74
Программа кодирования : AVI-Mux GUI 1.17.8.3, Feb 16 201019:42:50

Видео
Идентификатор : 0
Формат : MPEG-4 Visual
Профиль формата : Advanced Simple@L5
Параметр BVOP формата : 1
Параметр QPel формата : Нет
Параметр GMC формата : Без точки перехода
Параметр матрицы формата : Выборочная
Режим смешивания : Сжатый битовый поток
Идентификатор кодека : XVID
Идентификатор кодека/Подсказка : XviD
Продолжительность : 1 ч. 40 м.
Битрейт : 1886 Кбит/сек
Ширина : 720 пикселей
Высота : 384 пикселя
Соотношение сторон : 1,85:1
Частота кадров : 23,976 кадра/сек
Цветовое пространство : YUV
Субдискретизация насыщенности : 4:2:0
Битовая глубина : 8 бит
Тип развёртки : Прогрессивная
Метод сжатия : С потерями
Бит/(Пиксели*Кадры) : 0.284
Размер потока : 1,32 Гбайт (65%)
Библиотека кодирования : XviD 73

Аудио #1
Идентификатор : 1
Формат : AC-3
Формат/Информация : Audio Coding 3
Расширение режима : CM (complete main)
Параметр Endianness формата : Big
Идентификатор кодека : 2000
Продолжительность : 1 ч. 40 м.
Вид битрейта : Постоянный
Битрейт : 448 Кбит/сек
Каналы : 6 каналов
Расположение каналов : Front: L C R, Side: L R, LFE
Частота : 48,0 КГц
Битовая глубина : 16 бит
Метод сжатия : С потерями
Размер потока : 322 Мбайт (15%)
Выравнивание : Соединение по промежуткам
Продолжительность промежутка : 64 мс. (1,53 видеокадра)
Время предзагрузки промежутка : 192 мс.
Заголовок : Профессиональный (двухголосый закадровый)

Аудио #2
Идентификатор : 2
Формат : AC-3
Формат/Информация : Audio Coding 3
Расширение режима : CM (complete main)
Параметр Endianness формата : Big
Идентификатор кодека : 2000
Продолжительность : 1 ч. 40 м.
Вид битрейта : Постоянный
Битрейт : 192 Кбит/сек
Каналы : 2 канала
Расположение каналов : Front: L R
Частота : 48,0 КГц
Битовая глубина : 16 бит
Метод сжатия : С потерями
Размер потока : 138 Мбайт (7%)
Выравнивание : Соединение по промежуткам
Продолжительность промежутка : 64 мс. (1,53 видеокадра)
Время предзагрузки промежутка : 192 мс.
Заголовок : Двухголосый закадровый (Украинский)

Аудио #3
Идентификатор : 3
Формат : AC-3
Формат/Информация : Audio Coding 3
Расширение режима : CM (complete main)
Параметр Endianness формата : Big
Идентификатор кодека : 2000
Продолжительность : 1 ч. 40 м.
Вид битрейта : Постоянный
Битрейт : 384 Кбит/сек
Каналы : 6 каналов
Расположение каналов : Front: L C R, Side: L R, LFE
Частота : 48,0 КГц
Битовая глубина : 16 бит
Метод сжатия : С потерями
Размер потока : 276 Мбайт (13%)
Выравнивание : Соединение по промежуткам
Продолжительность промежутка : 64 мс. (1,53 видеокадра)
Время предзагрузки промежутка : 192 мс.
Заголовок : Оригинал (Английский)

Правила, инструкции, FAQ!!!
Торрент  Добавлен [12 сен 2013, 20:06] Скачать торрент Магнет ссылка
Скачать торрент
[ Размер 10.84 КБ / Просмотров 4 ]

Статус
Проверен 
 
Размер  2.05 ГБ
Приватный: Нет (DHT включён)
.torrent скачан  0
Как залить торрент? | Как скачать Torrent? | Как смотреть и слушать онлайн?  
Гость
 


  • Похожие торренты
    Ответы
    Просмотры
    Последнее сообщение

Вернуться в Триллеры

Кто сейчас на конференции

Сейчас этот форум просматривают: нет зарегистрированных пользователей и гости: 0