В осаде / Suddenly (2013) BDRip | D | Лицензия

Статистика раздачи
Размер: 1.45 ГБ | Добавлен: 20 дек 2013, 17:08 | Скачали: 0
Сидеров: 0  [0 байт/сек]    Личеров: 1  [0 байт/сек]

Сообщение Гость » 20 дек 2013, 17:08

В осаде
Suddenly




Страна: Канада, США / Canadian Film or Video Production Tax Credit (CPTC), Nasser Entertainment Group, Odyss
Жанр: Триллер
Год выпуска: 2013
Продолжительность: 01:30:09


Перевод: Профессиональный (многоголосый закадровый) Лицензия


Режиссер: Уве Болл / Uwe Boll

В ролях: Рэй Лиотта, Эрин Карплак, Доминик Пёрселл, Дон Маккэй, Коул Кокер, Тайрон Лейтсо, Майкл Паре, Стив Бачич, Гари Чок, Брендан Флетчер

Описание: Четверо убийц во главе с Бароном, представляются агентами секретной службы, чтобы реквизировать дом вдовы Эллен. Ее дом играет роль снайперской позиции в их плане покушения на президента во время его визита в маленький городок под названием Садденли. Убийцы провели всех местных полицейских, кроме одного — пьяницы Тодда, который служил вместе с покойным супругом Эллен…




Релиз от:

Автор рипа: _Flash


Качество видео: BDRip
Формат видео: AVI

Видео: 720x400, 23,976 fps, XviD build 73 ~1849 kbps avg, 0.268 bit/pixel
Аудио : 48 kHz, AC3 Dolby Digital, 3/2 (L,C,R,l,r) ch, 448.00 kbps| RUS


Общее
Полное имя : D:Suddenly 2013.BDRip.By_Flash.avi
Формат : AVI
Формат/Информация : Audio Video Interleave
Размер файла : 1,45 Гбайт
Продолжительность : 1 ч. 30 м.
Общий поток : 2306 Кбит/сек
Программа кодирования : VirtualDubMod 1.5.10.3 | http://www.virtualdub-fr.org || (build 2550/release)
Библиотека кодирования : VirtualDubMod build 2550/release

Видео
Идентификатор : 0
Формат : MPEG-4 Visual
Профиль формата : Advanced Simple@L5
Параметр BVOP формата : 1
Параметр QPel формата : Нет
Параметр GMC формата : Без точки перехода
Параметр матрицы формата : Выборочная
Идентификатор кодека : XVID
Идентификатор кодека/Подсказка : XviD
Продолжительность : 1 ч. 30 м.
Битрейт : 1849 Кбит/сек
Ширина : 720 пикселей
Высота : 400 пикселей
Соотношение сторон : 16:9
Частота кадров : 23,976 кадра/сек
Цветовое пространство : YUV
Субдискретизация насыщенности : 4:2:0
Битовая глубина : 8 бит
Тип развёртки : Прогрессивная
Метод сжатия : С потерями
Бит/(Пиксели*Кадры) : 0.268
Размер потока : 1,16 Гбайт (80%)
Библиотека кодирования : XviD 73

Аудио
Идентификатор : 1
Формат : AC-3
Формат/Информация : Audio Coding 3
Расширение режима : CM (complete main)
Параметр Endianness формата : Big
Идентификатор кодека : 2000
Продолжительность : 1 ч. 30 м.
Вид битрейта : Постоянный
Битрейт : 448 Кбит/сек
Каналы : 6 каналов
Расположение каналов : Front: L C R, Side: L R, LFE
Частота : 48,0 КГц
Битовая глубина : 16 бит
Метод сжатия : С потерями
Размер потока : 289 Мбайт (19%)
Выравнивание : Разделение по промежуткам
Продолжительность промежутка : 42 мс. (1,00 видеокадр)
Время предзагрузки промежутка : 500 мс.



Правила, инструкции, FAQ!!!
Торрент  Добавлен [20 дек 2013, 17:08] Скачать торрент Магнет ссылка
Скачать торрент
[ Размер 15.11 КБ / Просмотров 3 ]

Статус
Проверен 
 
Размер  1.45 ГБ
Приватный: Нет (DHT включён)
.torrent скачан  0
Как залить торрент? | Как скачать Torrent? | Как смотреть и слушать онлайн?  
Гость
 


  • Похожие торренты
    Ответы
    Просмотры
    Последнее сообщение

Вернуться в Триллеры

Кто сейчас на конференции

Сейчас этот форум просматривают: нет зарегистрированных пользователей и гости: 0