Вес воды / The Weight of Water (2000) DVDRip

Статистика раздачи
Размер: 2.19 ГБ | Добавлен: 10 сен 2013, 15:24 | Скачали: 0
Сидеров: 0  [0 байт/сек]    Личеров: 0  [0 байт/сек]

Сообщение Гость » 10 сен 2013, 15:24

Название: Вес воды
Оригинальное название: The Weight of Water
Год выхода: 2000
Жанр: триллер, драма, криминал, детектив
Режиссер: Кэтрин Бигелоу

В ролях: Элизабет Херли, Шон Пенн, Катрин МакКормак, Сара Полли, Киаран Хайндс, Ричард Донат, Ульрих Томсен, Андерс В. Бертельсен, Джозеф Раттен, Джон Уолф...

О фильме: Когда фотограф Джин приезжает на остров у побережья Нью-Хэмпшира, чтобы расследовать преступление столетней давности, происходит трагическое столкновение прошлого и настоящего.

По мере того, как Джин углубляется в подробности этого дела — взрыва страстей, приведшего к смерти двух женщин, она сама попадает на эмоционально опасную территорию. В фильме причудливо переплетаются два сюжета: драматические отношения двух пар и события столетней давности.



Страна: США, Франция
Продолжительность: 01:45:20
Перевод: Дублированный, Профессиональный (многоголосый закадровый), Оригинал (Английский)

Файл
Кодек: XviD
Качество: DVDRip
Видео: 704x400 (1.76:1), 25 fps, 1862 kbps, 0.264 bit/pixel
Аудио #1: 48 kHz, AC3 Dolby Digital, 3/2 (L,C,R,l,r) + LFE ch, ~448 kbps (Дублированный)
Аудио #2: 48 kHz, AC3 Dolby Digital, 3/2 (L,C,R,l,r) + LFE ch, ~448 kbps (Многоголосый)
Аудио #3: 48 kHz, AC3 Dolby Digital, 2/0 (L,R) ch, ~192 kbps (Оригинал)
Субтитры: Русские (внешние)

&

Общее
Полное имя : D:TorrentThe Weight of Water.2000.DVDRipThe Weight of Water.2000.DVDRip.avi
Формат : AVI
Формат/Информация : Audio Video Interleave
Профиль формата : OpenDML
Размер файла : 2,19 Гбайт
Продолжительность : 1 ч. 45 м.
Общий поток : 2974 Кбит/сек
Название фильма : The Weight of Water.2000.DVDRip rip by Rulya74
Программа кодирования : VirtualDubModRus 1.5.10.2 (build 2542/release)

Видео
Идентификатор : 0
Формат : MPEG-4 Visual
Профиль формата : Advanced Simple@L5
Параметр BVOP формата : 1
Параметр QPel формата : Нет
Параметр GMC формата : Без точки перехода
Параметр матрицы формата : Выборочная
Режим смешивания : Сжатый битовый поток
Идентификатор кодека : XVID
Идентификатор кодека/Подсказка : XviD
Продолжительность : 1 ч. 45 м.
Битрейт : 1862 Кбит/сек
Ширина : 704 пикселя
Высота : 400 пикселей
Соотношение сторон : 16:9
Частота кадров : 25,000 кадров/сек
Цветовое пространство : YUV
Субдискретизация насыщенности : 4:2:0
Битовая глубина : 8 бит
Тип развёртки : Прогрессивная
Метод сжатия : С потерями
Бит/(Пиксели*Кадры) : 0.264
Размер потока : 1,37 Гбайт (63%)
Библиотека кодирования : XviD 73

Аудио #1
Идентификатор : 1
Формат : AC-3
Формат/Информация : Audio Coding 3
Расширение режима : CM (complete main)
Параметр Endianness формата : Big
Идентификатор кодека : 2000
Продолжительность : 1 ч. 45 м.
Вид битрейта : Постоянный
Битрейт : 448 Кбит/сек
Каналы : 6 каналов
Расположение каналов : Front: L C R, Side: L R, LFE
Частота : 48,0 КГц
Битовая глубина : 16 бит
Метод сжатия : С потерями
Задержка видео : 2 с. 272 мс.
Размер потока : 337 Мбайт (15%)
Выравнивание : Разделение по промежуткам
Продолжительность промежутка : 40 мс. (1,00 видеокадр)
Время предзагрузки промежутка : 500 мс.

Аудио #2
Идентификатор : 2
Формат : AC-3
Формат/Информация : Audio Coding 3
Расширение режима : CM (complete main)
Параметр Endianness формата : Big
Идентификатор кодека : 2000
Продолжительность : 1 ч. 45 м.
Вид битрейта : Постоянный
Битрейт : 448 Кбит/сек
Каналы : 6 каналов
Расположение каналов : Front: L C R, Side: L R, LFE
Частота : 48,0 КГц
Битовая глубина : 16 бит
Метод сжатия : С потерями
Размер потока : 337 Мбайт (15%)
Выравнивание : Разделение по промежуткам
Продолжительность промежутка : 40 мс. (1,00 видеокадр)
Время предзагрузки промежутка : 500 мс.

Аудио #3
Идентификатор : 3
Формат : AC-3
Формат/Информация : Audio Coding 3
Расширение режима : CM (complete main)
Параметр Endianness формата : Big
Идентификатор кодека : 2000
Продолжительность : 1 ч. 45 м.
Вид битрейта : Постоянный
Битрейт : 192 Кбит/сек
Каналы : 2 канала
Расположение каналов : Front: L R
Частота : 48,0 КГц
Битовая глубина : 16 бит
Метод сжатия : С потерями
Размер потока : 145 Мбайт (6%)
Выравнивание : Разделение по промежуткам
Продолжительность промежутка : 40 мс. (1,00 видеокадр)
Время предзагрузки промежутка : 500 мс.

Правила, инструкции, FAQ!!!
Торрент  Добавлен [10 сен 2013, 15:24] Скачать торрент Магнет ссылка
Скачать торрент
[ Размер 11.48 КБ / Просмотров 7 ]

Статус
Проверен 
 
Размер  2.19 ГБ
Приватный: Нет (DHT включён)
.torrent скачан  0
Как залить торрент? | Как скачать Torrent? | Как смотреть и слушать онлайн?  
Гость
 


  • Похожие торренты
    Ответы
    Просмотры
    Последнее сообщение

Вернуться в Триллеры

Кто сейчас на конференции

Сейчас этот форум просматривают: нет зарегистрированных пользователей и гости: 0