Возвращение с Ведьминой Горы / Return From Witch Mountain (1978) DVDRip [H.264]

Статистика раздачи
Размер: 1.46 ГБ | Добавлен: 09 авг 2014, 21:26 | Скачали: 2
Сидеров: 2  [0 байт/сек]    Личеров: 4  [0 байт/сек]

Сообщение Гость » 09 авг 2014, 21:26

Год выпуска: 1978
Жанр: Фантастика, семейный
Производство: США, Walt Disney Productions

Описание фильма:
Продолжение приключений детей из космоса Тиа и Тони. Они спускаются на Землю, чтобы побывать в Нью-Йорке. Злой профессор Гэннон узнает о том, что брат и сестра обладают колоссальной силой, способной управлять миром. Он внедряет в мозг Тони специальное устройство, позволяющее использовать энергию мальчика. Тиа решает спасти брата и одновременно - нашу планету.

Режиссер: Джон Хаф
Актеры: Ким Ричардс, Айк Айсенманн, Бетт Дэвис, Кристофер Ли, Энтони Джеймс, Кристиан Джаттнер, Брэд Сэвадж, Поиндекстер Йозерс, Джеффри Жаке, Джек Су

Продолжительность: 01:33:46
Перевод: Профессиональный (многоголосый, закадровый)



Видеокодек: MPEG-4 AVC/H.264
Битрейт видео: ~1348 кбит/с
Размер кадра: 708 x 480 @ 839 x 480
Качество видео: DVDRip
Аудио #1: Русский, AC3, 2.0, 192 Кбит/с (ОРТ с VHS)
Аудио #2: Английский, AC3, 5.1, 448 Кбит/с
Аудио #3: Английский, AC3, 2.0, 192 Кбит/с (Comment)
Субтитры: Русский, Английский
Общее
Уникальный идентификатор : 243171440602468913753751846939418023492 (0xB6F11DAC1EF86BD289F2260D0F3DD644)
Полное имя : Return From Witch Mountain 1978.x264.DVDRip.AVC.Rus.mkv
Формат : Matroska
Версия формата : Version 4 / Version 2
Размер файла : 1,46 Гбайт
Продолжительность : 1 ч. 33 м.
Общий поток : 2225 Кбит/сек
Дата кодирования : UTC 2014-03-29 00:25:09
Программа кодирования : mkvmerge v6.6.0 ('The Edge Of The In Between') built on Dec 7 2013 13:21:48
Библиотека кодирования : libebml v1.3.0 + libmatroska v1.4.1
Attachment : Yes

Видео
Идентификатор : 1
Формат : AVC
Формат/Информация : Advanced Video Codec
Профиль формата :
Параметр CABAC формата : Да
Параметр ReFrames формата : 10 кадров
Идентификатор кодека : V_MPEG4/ISO/AVC
Продолжительность : 1 ч. 33 м.
Битрейт : 1348 Кбит/сек
Ширина : 708 пикселей
Высота : 480 пикселей
Соотношение сторон : 16:9
Режим частоты кадров : Постоянный
Частота кадров : 23,976 кадра/сек
Цветовое пространство : YUV
Субдискретизация насыщенности : 4:2:0
Битовая глубина : 8 бит
Тип развёртки : Прогрессивная
Бит/(Пиксели*Кадры) : 0.166
Размер потока : 904 Мбайт (61%)
Default : Да
Forced : Нет
Основные цвета : BT.601 PAL
Характеристики трансфера : BT.470 System B, BT.470 System G
Коэффициенты матрицы : BT.601

Аудио #1
Идентификатор : 2
Формат : AC-3
Формат/Информация : Audio Coding 3
Расширение режима : CM (complete main)
Параметр Endianness формата : Big
Идентификатор кодека : A_AC3
Продолжительность : 1 ч. 33 м.
Вид битрейта : Постоянный
Битрейт : 192 Кбит/сек
Каналы : 2 канала
Расположение каналов : Front: L R
Частота : 48,0 КГц
Битовая глубина : 16 бит
Метод сжатия : С потерями
Размер потока : 129 Мбайт (9%)
Заголовок : Русский ПМ (ОРТ с VHS)
Язык : Russian
Default : Да
Forced : Нет

Аудио #2
Идентификатор : 3
Формат : AC-3
Формат/Информация : Audio Coding 3
Расширение режима : CM (complete main)
Параметр Endianness формата : Big
Идентификатор кодека : A_AC3
Продолжительность : 1 ч. 33 м.
Вид битрейта : Постоянный
Битрейт : 448 Кбит/сек
Каналы : 6 каналов
Расположение каналов : Front: L C R, Side: L R, LFE
Частота : 48,0 КГц
Битовая глубина : 16 бит
Метод сжатия : С потерями
Размер потока : 300 Мбайт (20%)
Язык : English
Default : Нет
Forced : Нет

Аудио #3
Идентификатор : 4
Формат : AC-3
Формат/Информация : Audio Coding 3
Расширение режима : CM (complete main)
Параметр Endianness формата : Big
Идентификатор кодека : A_AC3
Продолжительность : 1 ч. 33 м.
Вид битрейта : Постоянный
Битрейт : 192 Кбит/сек
Каналы : 2 канала
Расположение каналов : Front: L R
Частота : 48,0 КГц
Битовая глубина : 16 бит
Метод сжатия : С потерями
Размер потока : 129 Мбайт (9%)
Заголовок : Comment
Язык : English
Default : Нет
Forced : Нет

Текст #1
Идентификатор : 5
Формат : UTF-8
Идентификатор кодека : S_TEXT/UTF8
Идентификатор кодека/Информация : UTF-8 Plain Text
Заголовок : Русский (CHIZ50)
Язык : Russian
Default : Нет
Forced : Нет

Текст #2
Идентификатор : 6
Формат : VobSub
Режим смешивания : zlib
Идентификатор кодека : S_VOBSUB
Идентификатор кодека/Информация : The same subtitle format used on DVDs
Язык : English
Default : Да
Forced : Нет

Текст #3
Идентификатор : 7
Формат : UTF-8
Идентификатор кодека : S_TEXT/UTF8
Идентификатор кодека/Информация : UTF-8 Plain Text
Язык : English
Default : Нет
Forced : Нет

Меню
00:00:00.000 : en:00:00:00.000
00:06:41.167 : en:00:06:41.167
00:13:39.752 : en:00:13:39.752
00:20:13.979 : en:00:20:13.979
00:27:07.893 : en:00:27:07.893
00:34:44.850 : en:00:34:44.850
00:46:21.546 : en:00:46:21.546
00:51:41.031 : en:00:51:41.031
00:55:00.063 : en:00:55:00.063
01:03:01.578 : en:01:03:01.578
01:07:11.661 : en:01:07:11.661
01:10:21.650 : en:01:10:21.650
01:25:01.730 : en:01:25:01.730
01:33:46.325 : en:01:33:46.325
Скриншоты:
[center]
Правила, инструкции, FAQ!!!
Торрент  Добавлен [09 авг 2014, 21:26] Скачать торрент Магнет ссылка
Скачать торрент
[ Размер 15.46 КБ / Просмотров 21 ]

Статус
Проверен 
 
Размер  1.46 ГБ
Приватный: Нет (DHT включён)
.torrent скачан  2
Как залить торрент? | Как скачать Torrent? | Как смотреть и слушать онлайн?  
Гость
 


  • Похожие торренты
    Ответы
    Просмотры
    Последнее сообщение

Вернуться в Детское, Семейное кино

Кто сейчас на конференции

Сейчас этот форум просматривают: нет зарегистрированных пользователей и гости: 2