Зачарованная / Enchanted (Кевин Лима / Kevin Lima) [2007, США, мюзикл, фэнтези, мелодрама, комедия, семейный, BDRip] Dub

Статистика раздачи
Размер: 1.79 ГБ | Добавлен: 19 апр 2014, 18:49 | Скачали: 0
Сидеров: 34  [0 байт/сек]    Личеров: 11  [0 байт/сек]

Сообщение Гость » 19 апр 2014, 18:49

Зачарованная / Enchanted
«Все еще ждешь принца?.. Добро пожаловать в реальный мир»

Год выпуска: 2007
Страна: США / Walt Disney Pictures
Жанр: мюзикл, фэнтези, мелодрама, комедия, семейный
Продолжительность: 01:47:28
Перевод: Профессиональный (полное дублирование)

Оригинальная аудиодорожка: английская
Субтитры: русские (полные - c BD и voronine), английские (полные) |*srt|
Режиссер: Кевин Лима / Kevin Lima
В ролях: Эми Адамс, Патрик Демпси, Джеймс Марсден, Тимоти Сполл,Сьюзен Сарандон, Идина Мензел, Рэйчел Кови, Джули Эндрюс, Джефф Беннетт, Кевин Лима
Описание: Юная девушка из мультипликационного мира влюбилась в прекрасного принца, чем немало разозлила его мачеху. С помощью черной магии королева отправляет несчастную в единственное место во Вселенной, где нет любви — современный Манхэттен. Вчерашней мультяшке придется как-то выживать в реальности.

Сэмпл: http://multi-up.com/922860
Качество: BDRip [рип с BDRemux 1080p]
Формат: AVI
Видео: 720x304 (2.37:1), 23.976 fps, XviD build 65 ~1484 kbps avg, 0.28 bit/pixel
Аудио 1: 48 kHz, AC3 Dolby Digital, 3/2 (L,C,R,l,r) + LFE ch, ~448.00 kbps avg |DUB|
Аудио 2: 48 kHz, AC3 Dolby Digital, 3/2 (L,C,R,l,r) + LFE ch, ~448.00 kbps avg |ENG| <= отдельно

Media Info
Код:
Код: Выделить всё
Формат                                   : AVI
Формат/Информация                        : Audio Video Interleave
Размер файла                             : 1,46 Гбайт
Продолжительность                        : 1 ч. 47 м.
Общий поток                              : 1942 Кбит/сек
Программа кодирования                    : VirtualDubMod 1.5.10.3 | www.virtualdub-fr.org || (build 2550/release)
Библиотека кодирования                   : VirtualDubMod build 2550/release

Видео
Идентификатор                            : 0
Формат                                   : MPEG-4 Visual
Профиль формата                          : Advanced Simple@L5
Параметр BVOP формата                    : 1
Параметр QPel формата                    : Нет
Параметр GMC формата                     : Без точки перехода
Параметр матрицы формата                 : Выборочная
Идентификатор кодека                     : XVID
Идентификатор кодека/Подсказка           : XviD
Продолжительность                        : 1 ч. 47 м.
Битрейт                                  : 1484 Кбит/сек
Ширина                                   : 720 пикселей
Высота                                   : 304 пикселя
Соотношение сторон                       : 2,35:1
Частота кадров                           : 23,976 кадра/сек
Цветовое пространство                    : YUV
Субдискретизация насыщенности            : 4:2:0
Битовая глубина                          : 8 бит
Тип развёртки                            : Прогрессивная
Метод сжатия                             : С потерями
Бит/(Пиксели*Кадры)                      : 0.283
Размер потока                            : 1,11 Гбайт (76%)
Библиотека кодирования                   : XviD 65

Аудио
Идентификатор                            : 1
Формат                                   : AC-3
Формат/Информация                        : Audio Coding 3
Расширение режима                        : CM (complete main)
Параметр Endianness формата              : Big
Идентификатор кодека                     : 2000
Продолжительность                        : 1 ч. 47 м.
Вид битрейта                             : Постоянный
Битрейт                                  : 448 Кбит/сек
Каналы                                   : 6 каналов
Расположение каналов                     : Front: L C R, Side: L R, LFE
Частота                                  : 48,0 КГц
Битовая глубина                          : 16 бит
Метод сжатия                             : С потерями
Размер потока                            : 344 Мбайт (23%)
Выравнивание                             : Разделение по промежуткам
Продолжительность промежутка             : 42  мс. (1,00 видеокадр)
Время предзагрузки промежутка            : 500  мс.

Скриншоты
Правила, инструкции, FAQ!!!
Торрент  Добавлен [19 апр 2014, 18:49] Скачать торрент Магнет ссылка
Скачать торрент
[ Размер 18.77 КБ / Просмотров 11 ]

Статус
Проверен 
 
Размер  1.79 ГБ
Приватный: Нет (DHT включён)
.torrent скачан  0
Как залить торрент? | Как скачать Torrent? | Как смотреть и слушать онлайн?  
Гость
 


  • Похожие торренты
    Ответы
    Просмотры
    Последнее сообщение

Вернуться в Детское, Семейное кино

Кто сейчас на конференции

Сейчас этот форум просматривают: нет зарегистрированных пользователей и гости: 1